<?xml version="1.0" standalone="no"?>
<!DOCTYPE svg PUBLIC "-//W3C//DTD SVG 1.1//EN" "http://www.w3.org/Graphics/SVG/1.1/DTD/svg11.dtd" >
<svg xmlns="http://www.w3.org/2000/svg">
  <metadata>Created by iconfont</metadata>
  <defs>
  <font id="iconfont" horiz-adv-x="1024">
    <font-face
      font-family="iconfont"
      font-weight="400"
      font-stretch="normal"
      units-per-em="1024"
      ascent="896"
      descent="-128"
    />
      <missing-glyph />
      
      <glyph glyph-name="a-weiduciji1" unicode="&#59197;" d="M499.5072 869.70368a93.71648 93.71648 0 0 0 63.61088-33.62816c11.71456-13.96736 19.33312-30.9248 22.03648-48.98816l263.90528-244.736a93.7984 93.7984 0 0 0 132.25984-12.36992h0.08192v0.12288a88.8832 88.8832 0 0 0-15.72864-131.56352 101.9904 101.9904 0 0 0-97.6896-12.288l-200.82688-364.1344a94.16704 94.16704 0 0 0-85.07392-135.04512 94.12608 94.12608 0 0 0-94.53568 92.28288c0 6.10304 3.15392 12.20608 3.15392 18.39104L267.0592 126.19776c-17.08032-13.39392-38.13376-20.8896-59.88352-21.38112a92.48768 92.48768 0 0 0-66.92864 25.96864 91.25888 91.25888 0 0 0-27.60704 65.78176 93.7984 93.7984 0 0 0 44.11392 76.47232L103.2192 502.49728a91.05408 91.05408 0 0 0-82.3296 82.3296 90.64448 90.64448 0 0 0 66.51904 95.19104 92.65152 92.65152 0 0 0 88.2688-18.30912l223.55968 128.45056a90.5216 90.5216 0 0 0 31.62112 58.1632 93.5936 93.5936 0 0 0 68.64896 21.38112z m-201.1136-645.65248c3.56352-8.76544 5.69344-18.10432 6.26688-27.56608 0-6.144-3.15392-12.288-3.15392-18.39104l223.6416-128.49152 12.65664 12.20608-50.3808 229.49888a115.0976 115.0976 0 0 0-72.4992 24.49408l-116.57216-91.7504z m519.08608 195.7888l-200.78592-18.39104a121.61024 121.61024 0 0 0-69.2224-100.9664l50.29888-229.45792c8.68352-0.57344 17.24416-2.62144 25.27232-6.10304l194.51904 354.9184h-0.08192zM219.58656 285.20448c14.41792-0.77824 28.4672-4.9152 40.96-12.16512l116.5312 88.76032a124.23168 124.23168 0 0 0-9.4208 48.90624c0 6.10304 3.19488 12.24704 3.19488 18.35008L166.01088 514.6624l53.57568-229.45792z m349.67552 440.64768a54.92736 54.92736 0 0 0-15.72864-21.42208 129.26976 129.26976 0 0 0-28.2624-15.23712v-162.2016a126.976 126.976 0 0 0 81.83808-67.33824l210.28864 21.504v9.09312L569.344 725.8112zM206.88896 609.60768h0.12288c1.55648-15.23712 1.55648-30.72 0-45.95712l189.19424-79.58528c15.81056 22.03648 39.3216 37.35552 65.98656 42.84416v162.2016a119.52128 119.52128 0 0 0-40.96 27.60704c-3.15392 2.99008-3.15392 6.02112-6.30784 9.09312l-0.08192 0.08192L206.848 609.60768z"  horiz-adv-x="1024" />
      
      <glyph glyph-name="dunpai" unicode="&#59196;" d="M509.1328 802.6112a45.602133 45.602133 0 0 0 28.398933-0.136533l330.205867-110.045867c18.568533-6.144 31.1296-23.552 31.1296-43.144533V323.925333a364.1344 364.1344 0 0 0-197.4272-323.720533l-157.4912-81.237333a45.602133 45.602133 0 0 0-41.233067-0.2048l-164.932266 82.466133A364.1344 364.1344 0 0 0 136.533333 326.792533v322.218667c0 19.6608 12.765867 37.205333 31.5392 43.281067l341.060267 110.318933z m181.111467-305.425067a47.786667 47.786667 0 0 1-67.242667-6.485333L497.186133 337.92l-53.794133 53.794133a47.786667 47.786667 0 0 1-67.584-67.584L466.807467 233.130667a47.854933 47.854933 0 0 1 67.310933-0.341334l3.413333 3.6864 159.266134 193.399467a47.786667 47.786667 0 0 1-6.5536 67.310933z"  horiz-adv-x="1024" />
      
      <glyph glyph-name="weidu" unicode="&#59194;" d="M1000.865075 541.694275a97.577732 97.577732 0 0 1-137.812013 12.88521l-274.856032 254.973557a103.124345 103.124345 0 0 1-52.56483 75.092613 97.577732 97.577732 0 0 1-108.20163-11.306558c-18.303825-15.359853-29.994379-37.034312-32.895684-60.586086L161.619784 678.90896a96.468409 96.468409 0 0 1-91.945785 19.071818A94.420428 94.420428 0 0 1 0.426663 598.824395a94.847091 94.847091 0 0 1 85.759178-85.759179l55.679466-239.016376a97.620398 97.620398 0 0 1-45.908893-79.615237c-0.170665-25.77042 10.239902-50.474183 28.757057-68.564676a96.383076 96.383076 0 0 1 69.673999-27.050407 104.830995 104.830995 0 0 1 62.420736 22.314452l233.000433-133.84405c0-6.442605-3.285302-12.799877-3.285302-19.199816A98.004394 98.004394 0 0 1 584.99706-127.995307a98.04706 98.04706 0 0 1 88.617818 140.713318l209.192662 379.260366a106.238982 106.238982 0 0 1 101.759025 12.799877 92.585779 92.585779 0 0 1 16.383843 137.04402v-0.127999h-0.085333zM410.833396 318.592413a119.806852 119.806852 0 0 1 75.47661-25.514422l52.479497-239.016376-13.141207-12.757211-232.957768 133.886717c0 6.357272 3.285302 12.714545 3.285302 19.15715a90.623132 90.623132 0 0 1-6.570603 28.671725l121.428169 95.572417z m419.409314 108.372295l-202.622058-369.703123a78.889911 78.889911 0 0 1-26.325081 6.399938l-52.479497 239.016376a126.548121 126.548121 0 0 1 72.148642 105.172326l209.192662 19.15715h0.085332zM151.550548 525.779761l213.331289-89.215145c0-6.399939-3.285302-12.757211-3.285302-19.114483-0.213331-17.535832 3.157303-34.815666 9.813239-50.943512l-121.42817-92.457781a94.97509 94.97509 0 0 1-42.666257 12.714545L151.593214 525.737095z m420.13464 219.944559l258.386857-245.373648v-9.514576l-219.048567-22.399785a132.265399 132.265399 0 0 1-85.28985 70.143328v168.95838c10.453233 4.053294 20.351805 9.386577 29.439718 15.871848 7.253264 5.973276 12.88521 13.653202 16.42651 22.314453h0.085332z m-160.851792 0c3.285302-3.199969 3.285302-6.399939 6.570604-9.514575 12.074551-12.415881 26.581079-22.186454 42.666258-28.757058v-168.958381A112.29759 112.29759 0 0 1 391.249584 493.8654L194.259472 576.808606a231.805779 231.805779 0 0 1 0 47.786208h-0.170665l216.659257 121.172172 0.085332-0.085332z"  horiz-adv-x="1024" />
      
      <glyph glyph-name="a-zhiye1" unicode="&#59195;" d="M939.434667 652.202667c23.125333 0 41.898667-18.773333 41.898666-41.898667v-553.173333c0-23.125333-18.773333-41.898667-41.898666-41.898667H84.565333A41.898667 41.898667 0 0 0 42.666667 57.173333V610.304c0 23.125333 18.773333 41.898667 41.898666 41.898667h854.869334zM265.941333 322.56C209.066667 298.581333 166.4 235.690667 158.293333 159.104l-0.256-2.346667v-0.512a22.058667 22.058667 0 0 1 21.632-23.68h274.730667a21.973333 21.973333 0 0 1 21.973333 23.765334l-0.042666 0.341333-0.298667 2.986667c-8.149333 74.666667-49.066667 136.32-104.021333 161.365333l-1.706667 0.725333-51.968-126.976-52.352 127.829334z m566.613334-105.173333h-161.28a33.536 33.536 0 0 1-0.597334-67.029334h161.877334a33.536 33.536 0 0 1 0 66.986667z m0 160.298666h-231.509334a33.536 33.536 0 0 1-0.554666-67.072h232.064a33.536 33.536 0 0 1 0 67.072zM316.8 534.869333c-58.325333 0-105.642667-47.744-105.642667-106.624 0-58.88 47.317333-106.624 105.642667-106.624S422.4 369.365333 422.4 428.245333c0 58.88-47.274667 106.624-105.6 106.624z m515.754667-15.744h-300.672a33.536 33.536 0 0 1-0.512-67.029333H832.512a33.536 33.536 0 0 1 0 67.029333z m-236.757334 233.642667a33.536 33.536 0 0 0 0-67.072h-167.594666a33.536 33.536 0 0 0 0 67.072h167.594666z"  horiz-adv-x="1024" />
      
      <glyph glyph-name="a-Star24" unicode="&#59193;" d="M488.009143 831.122286a25.6 25.6 0 0 0 47.981714 0l110.226286-297.764572a25.6 25.6 0 0 1 15.140571-15.140571l297.691429-110.226286a25.6 25.6 0 0 0 0-47.981714l-297.691429-110.226286a25.6 25.6 0 0 1-15.140571-15.140571l-110.226286-297.691429a25.6 25.6 0 0 0-47.981714 0l-110.226286 297.691429a25.6 25.6 0 0 1-15.140571 15.140571L64.950857 360.009143a25.6 25.6 0 0 0 0 47.981714l297.691429 110.226286a25.6 25.6 0 0 1 15.140571 15.140571L488.009143 831.049143z"  horiz-adv-x="1024" />
      
      <glyph glyph-name="yonghu" unicode="&#59190;" d="M538.2144 895.3344C808.2944 881.664 1023.8976 657.4592 1024 384l-0.6656-26.3168A511.6416 511.6416 0 0 0 512-128l-26.4704 0.6656a511.5392 511.5392 0 0 0-484.864 485.0176L0 384C0 666.2656 229.6832 896 511.8464 896l26.368-0.6656z m-3.84-302.1824c-34.5088 7.0144-54.4256 6.8096-66.56 3.3792-9.216-2.56-16.2816-7.68-23.296-20.992-5.7856-11.776-15.2064-26.8288-21.6064-35.2256l-0.3072-0.4096-0.3584-0.4608-0.1024-0.1536-0.3072-0.4096a52.736 52.736 0 0 1-3.584-7.8336c-1.8944-5.1712-3.6352-11.776-4.9152-19.2a138.0864 138.0864 0 0 1-1.6384-32.9728l1.2288-9.2672 0.3072-1.3824 0.1536-1.4848c0.9216-8.192 1.4336-16.128 1.4848-22.528a71.68 71.68 0 0 0-0.7168-11.008 40.6528 40.6528 0 0 0-3.072-10.3936c0-0.1024-0.2048-0.3072-0.3584-0.6144a123.392 123.392 0 0 1 7.68-33.536 41.984 41.984 0 0 0 3.3792-3.1744 47.4112 47.4112 0 0 0 4.608-5.9904c1.8944-2.816 3.6352-6.0928 5.0688-8.8064 2.8672-5.5296 6.0416-12.288 8.704-18.5344l5.12-11.0592c3.584-7.424 7.5264-14.9504 11.4176-21.248l5.6832-8.448 0.3072-0.3584 0.256-0.4096c3.584-5.0176 7.4752-10.24 10.24-14.336 2.9696-4.4544 6.4-9.984 8.9088-16.5888 5.3248-14.0288 4.352-27.648 3.584-39.0656v-0.512l-0.1024-0.6144c-1.7408-17.152-5.5296-37.2224-16.7936-51.968l-1.3824-1.8432-1.5872-1.5872c-11.9296-11.9296-30.6176-22.6816-52.224-32.768-22.6816-10.5984-52.2752-22.1184-88.9856-34.6624h-0.3072c-19.2512-6.4512-37.2736-12.9024-50.944-18.0224-6.8608-2.56-12.4928-4.8128-16.4864-6.5024l-1.9456-0.8192a63.3856 63.3856 0 0 1-4.5056-7.7312c-4.4032-8.704-9.9328-22.272-17.2032-43.52l-0.1536-0.256A440.8832 440.8832 0 0 1 512-58.88c108.032 0 206.7456 38.5024 283.4432 102.4l-2.3552 9.7792c-5.3248 19.1488-9.216 24.064-13.2096 27.3408-3.3792 2.816-9.216 6.144-21.6576 10.8032-12.6976 4.7104-28.672 9.5744-51.712 16.896l-0.3584 0.0512-0.4096 0.1536c-56.1664 19.2512-94.7712 33.792-119.3984 50.7904a97.1776 97.1776 0 0 0-31.5904 34.048 110.336 110.336 0 0 0-11.6224 40.8576l-0.1024 0.7168v0.6656c-0.7168 9.8816-2.048 23.6032 1.6384 36.5056 3.7888 13.3632 12.1856 23.6032 18.5344 31.3856 7.0144 9.1136 14.1824 20.1216 19.3536 30.0032 2.56 4.9152 4.4544 9.0624 5.5296 12.0832 0.6656 1.792 0.8192 2.7136 0.8704 2.816a45.312 45.312 0 0 0 10.24 26.0096c1.3824 1.6896 3.2768 3.7888 3.584 4.096l0.256 0.3584 5.12 7.424 3.072 1.536 0.256 0.512c1.8432 3.84 3.84 9.6256 5.2736 16.0768 1.2288 5.5296 1.6896 10.3936 1.8432 13.7216a41.3696 41.3696 0 0 0-3.2256 9.216 61.4912 61.4912 0 0 0-1.0752 6.8608 178.6368 178.6368 0 0 0-0.6656 12.032c-0.2048 8.3456-0.2048 19.1488-0.2048 29.696v0.9216l0.0512 1.024c1.536 27.392-0.256 37.376-3.1744 46.2848a112.5376 112.5376 0 0 0-6.5536 26.4192 214.5792 214.5792 0 0 0-1.6896 27.136c0 3.584-0.512 7.2704-1.2288 10.752a158.0544 158.0544 0 0 0-16.2816-1.024c-15.5136 0-32.6656 2.048-50.176 5.6832z m-22.528 233.728C267.8784 826.88 69.12 628.1216 69.12 384c0-111.7184 41.3184-213.8624 109.6192-291.84 3.4816 8.704 6.7072 16.2304 10.0352 22.6816 6.3488 12.5952 14.1312 24.3712 25.088 32.6656l0.9216 0.7168 0.9728 0.5632c4.4544 2.9184 10.752 5.632 14.4384 7.168 5.0176 2.0992 11.4688 4.608 18.7392 7.3728a1478.144 1478.144 0 0 0 53.2992 18.8416l25.088 8.7552c23.4496 8.5504 42.2912 16.2304 56.9856 23.04 15.872 7.4752 25.0368 13.056 29.6448 16.5376l0.3584 1.024a90.112 90.112 0 0 1 2.7648 24.2176 54.0672 54.0672 0 0 1-1.1776 1.8432c-2.048 3.072-4.608 6.4512-9.216 12.8512l0.0512 0.0512c-12.1344 16.3328-23.1424 38.6048-29.7984 53.6064l-0.256 0.6144a216.3712 216.3712 0 0 1-6.0928 13.1584 48.2304 48.2304 0 0 0-6.8608 7.168 73.9328 73.9328 0 0 0-8.0896 14.592 181.9136 181.9136 0 0 0-9.4208 29.7472 178.176 178.176 0 0 0-4.6592 31.488 75.5712 75.5712 0 0 0 1.024 17.2544 49.5104 49.5104 0 0 0 2.9184 9.3184c-0.1536 2.9696-0.256 6.912-0.8192 11.52a195.8912 195.8912 0 0 0 0.512 64.4096c3.328 19.712 10.1376 42.9056 22.8352 58.9312l7.168 10.6496c2.6624 4.352 5.376 9.216 7.3728 13.1584l0.3072 0.6144 5.632 9.8816c13.8752 22.2208 33.2288 38.7072 60.5184 46.4384 24.8832 7.0656 53.5552 5.9392 85.504 0.4096l13.824-2.6624h0.256l-0.0512-0.1024c13.6704-2.8672 26.0608-4.096 35.9936-4.096 4.9664 0 8.96 0.3072 11.9808 0.8192a31.8464 31.8464 0 0 1 3.5328 0.7168l0.9216 0.256 0.256 0.1024 0.0512 0.0512 1.024 0.4096c22.6304 9.216 39.68-5.632 44.3392-10.2912 6.3488-6.4512 10.8032-14.2848 13.824-20.8896 6.2464-13.7216 10.6496-31.744 10.6496-50.0736 0-5.3248 0.3584-11.9808 1.1776-18.0224 0.4096-3.0208 0.8192-5.5296 1.28-7.424l0.5632-1.9456 1.024-2.1504 0.768-2.304c6.656-20.1216 8.192-39.4752 6.656-69.888l0.1536-27.8528 0.1024-2.8672c1.536-3.2256 2.4576-6.0416 2.9696-7.8848 1.5872-6.144 2.048-12.1856 2.048-16.9984 0.1024-9.8816-1.4336-20.8384-3.6864-30.9248s-5.632-21.0432-10.24-30.7712c-2.816-5.888-8.192-15.8208-17.2544-23.6032-0.9728-4.9152-2.3552-9.4208-3.6352-13.0048a171.008 171.008 0 0 0-9.3696-20.6848c-7.1168-13.5168-16.384-27.9552-25.7536-40.1408l-0.3072-0.3072-0.256-0.4096a148.5824 148.5824 0 0 1-6.0416-7.7312c0-2.4064 0.2048-5.632 0.6144-11.52 1.024-8.4992 2.3552-12.6464 3.6864-15.1552a29.0816 29.0816 0 0 1 10.0352-9.8816c15.1552-10.496 43.7248-22.1696 102.0928-42.1888 21.2992-6.7072 39.8848-12.3904 54.528-17.8176 14.9504-5.5808 29.3888-12.1344 41.728-22.3232 11.9808-9.9328 20.224-21.9648 26.368-35.6352a441.344 441.344 0 0 1 104.4992 285.696l-0.5632 22.7328c-11.6224 226.0992-193.6384 408.1152-419.7376 419.6352l-22.7328 0.5632z m-120.32-498.4832l3.9424-0.2048-6.7584 0.7168c0.8704-0.2048 1.792-0.4096 2.7648-0.512z"  horiz-adv-x="1024" />
      
      <glyph glyph-name="a-fuzhi1" unicode="&#59191;" d="M761.088 180.6848a38.7072 38.7072 0 1 0 0 77.4144 37.376 37.376 0 0 1 37.376 37.376V631.04a37.4272 37.4272 0 0 1-37.376 37.376H425.6256a37.4272 37.4272 0 0 1-37.4272-37.376 38.7072 38.7072 0 0 0-77.4144 0 115.0976 115.0976 0 0 0 114.8416 114.8416h335.4624a115.0976 115.0976 0 0 0 114.8416-114.8416v-335.4624a115.0976 115.0976 0 0 0-114.8416-114.8416zM589.4656 12.9024H268.1856a121.1392 121.1392 0 0 0-121.2928 121.2928v322.56a121.1392 121.1392 0 0 0 121.344 121.344h321.2288a121.1392 121.1392 0 0 0 121.344-121.2928v-322.56c1.2288-67.1232-54.2208-121.344-121.344-121.344zM268.1856 500.6848a43.52 43.52 0 0 1-43.8784-43.8784v-322.56a43.52 43.52 0 0 1 43.8784-43.8784h321.28a43.5712 43.5712 0 0 1 43.8784 43.8784v322.56a43.52 43.52 0 0 1-43.8784 43.8784H268.1856z"  horiz-adv-x="1024" />
      
      <glyph glyph-name="a-chabaogao1" unicode="&#59192;" d="M822.314667 853.333333C899.84 853.333333 938.666667 819.797333 938.666667 752.768v-737.536C938.666667-51.797333 899.84-85.333333 822.314667-85.333333H201.728C124.117333-85.333333 85.333333-51.797333 85.333333 15.232V752.768C85.333333 819.797333 124.16 853.333333 201.728 853.333333h620.544zM723.626667 331.562667a117.162667 117.162667 0 0 1-70.613334 7.296 120.576 120.576 0 0 1-62.549333-34.986667c-17.066667-17.92-28.757333-40.746667-33.450667-65.578667a133.717333 133.717333 0 0 1 6.954667-73.941333 126.848 126.848 0 0 1 45.013333-57.429333c20.053333-14.08 43.690667-21.589333 67.84-21.589334 21.162667 0 41.685333 5.973333 59.818667 16.64l63.573333-66.645333a23.808 23.808 0 0 1 17.066667-7.424 23.381333 23.381333 0 0 1 13.226667 4.352 25.088 25.088 0 0 1 8.746666 11.264 26.368 26.368 0 0 1-5.12 27.306667l-61.013333 64a132.394667 132.394667 0 0 1 5.376 149.632 123.648 123.648 0 0 1-54.869333 47.104z m-46.805334-36.181334c20.778667 0 40.704-8.661333 55.381334-24.064a84.906667 84.906667 0 0 0 9.770666-103.594666 79.232 79.232 0 0 0-35.157333-30.165334 75.008 75.008 0 0 0-45.226667-4.693333 77.354667 77.354667 0 0 0-40.106666 22.485333 83.328 83.328 0 0 0-21.461334 41.984 85.76 85.76 0 0 0 4.48 47.402667c5.930667 14.976 15.957333 27.776 28.842667 36.821333a75.818667 75.818667 0 0 0 43.52 13.824zM245.333333 514.986667a31.274667 31.274667 0 0 1-22.613333-9.813334 34.346667 34.346667 0 0 1-9.386667-23.68c0-8.874667 3.413333-17.408 9.386667-23.722666 5.973333-6.272 14.122667-9.813333 22.613333-9.813334h256c8.490667 0 16.64 3.541333 22.613334 9.813334a34.389333 34.389333 0 0 1 9.386666 23.722666 34.346667 34.346667 0 0 1-9.386666 23.68 31.317333 31.317333 0 0 1-22.613334 9.813334h-256zM245.333333 682.666667a31.274667 31.274667 0 0 1-22.613333-9.813334 34.389333 34.389333 0 0 1-9.386667-23.722666c0-8.874667 3.413333-17.408 9.386667-23.68 5.973333-6.272 14.122667-9.813333 22.613333-9.813334h448c8.490667 0 16.64 3.541333 22.613334 9.813334a34.346667 34.346667 0 0 1 9.386666 23.68 34.389333 34.389333 0 0 1-9.386666 23.722666 31.317333 31.317333 0 0 1-22.613334 9.813334H245.333333z"  horiz-adv-x="1024" />
      
      <glyph glyph-name="jishi" unicode="&#59189;" d="M510.293 776.533c240.64 0 435.2-194.56 435.2-435.2s-194.56-435.2-435.2-435.2-435.2 194.56-435.2 435.2 194.56 435.2 435.2 435.2z m0-95.573c-187.733 0-337.92-151.893-337.92-337.92 0-187.733 151.894-337.92 337.92-337.92 187.734 0 337.92 151.893 337.92 337.92s-150.186 337.92-337.92 337.92z m40.96-114.347c5.12-3.413 6.827-8.533 6.827-15.36v-160.426h105.813c6.827 0 13.654-3.414 17.067-10.24 3.413-6.827 1.707-15.36-1.707-20.48L496.64 121.173c-5.12-6.826-13.653-8.533-22.187-6.826-8.533 3.413-13.653 10.24-13.653 18.773V293.547H354.987c-6.827 0-13.654 3.413-17.067 10.24-3.413 6.826-1.707 15.36 1.707 20.48L522.24 563.2c8.533 8.533 20.48 10.24 29.013 3.413z m189.44 276.48c17.067 20.48 47.787 23.894 68.267 5.12l148.48-124.586c10.24-8.534 15.36-20.48 17.067-32.427 1.706-11.947-3.414-25.6-11.947-35.84-17.067-20.48-47.787-23.893-68.267-5.12l-148.48 124.587c-10.24 8.533-15.36 20.48-17.066 32.426 0 13.654 3.413 27.307 11.946 35.84z m-523.946 10.24c22.186 15.36 51.2 10.24 66.56-11.946 15.36-20.48 11.946-51.2-8.534-66.56L126.293 650.24C116.053 643.413 102.4 640 90.453 640c-13.653 1.707-23.893 6.827-32.426 17.067-17.067 20.48-13.654 51.2 6.826 68.266L213.333 849.92l3.414 3.413z m0 0"  horiz-adv-x="1024" />
      
      <glyph glyph-name="xinggeceping" unicode="&#59176;" d="M384.17408 810.666667a128 128 0 0 0 67.242667-236.714667l13.056-104.874667c1.706667 0 3.413333 0.256 5.034666 0.256 40.874667 0 77.141333-19.2 100.608-48.981333l33.621334 16.810667a85.333333 85.333333 0 1 0 34.133333-40.277334l-44.885333-22.357333A128 128 0 0 0 597.507413 341.333333c0-3.413333-0.341333-6.912-0.597333-10.325333l217.258667-62.037333a128 128 0 1 0-44.032-76.202667l-208.725334 59.733333a128 128 0 0 0-40.789333-28.416l12.288-98.730666a85.333333 85.333333 0 1 0-51.2-2.901334L470.275413 213.333333 469.507413 213.333333c-22.272 0-43.264 5.717333-61.44 15.786667L254.296747 106.069333a128 128 0 1 0-42.154667 75.605334l138.837333 111.189333a127.573333 127.573333 0 0 0-5.12 81.664L173.144747 460.8a52.821333 52.821333 0 0 0-34.304-12.885333 53.333333 53.333333 0 1 0 0 106.666666c26.794667 0 48.725333-19.797333 52.48-45.568l177.493333-88.746666c4.266667 5.376 8.96 10.24 13.909333 14.933333l-15.018666 120.661333A127.829333 127.829333 0 0 0 384.17408 810.666667z m-256-669.866667a55.466667 55.466667 0 1 1 0-110.933333 55.466667 55.466667 0 0 1 0 110.933333z m384-85.333333a12.8 12.8 0 0 1 0-25.6 12.8 12.8 0 0 1 0 25.6z m384 170.666666a55.466667 55.466667 0 0 1-46.08-24.490666l-8.362667-29.269334-0.853333 0.256-0.170667-1.962666a55.466667 55.466667 0 1 1 55.466667 55.466666z m-426.666667 170.666667a55.466667 55.466667 0 1 1 0-111.018667 55.466667 55.466667 0 0 1 0 111.018667z m213.333334 85.333333a12.8 12.8 0 0 1 0-25.6 12.8 12.8 0 0 1 0 25.6z m-298.666667 256a55.466667 55.466667 0 1 1 0-110.933333 55.466667 55.466667 0 0 1 0 110.933333z"  horiz-adv-x="1024" />
      
      <glyph glyph-name="zhifujilu" unicode="&#59177;" d="M886.186667 799.232c38.144 0 70.314667-27.136 76.032-63.232l0.853333-7.338667v-0.170666l0.085333-3.925334V523.093333c0-39.765333-32.085333-72.533333-72.704-74.666666l-4.096-0.085334h-68.608v-414.293333a55.466667 55.466667 0 0 0-52.48-54.613333l-3.498666-0.085334h-0.170667a58.368 58.368 0 0 0-21.333333 4.010667L733.866667-13.653333l-95.402667 52.906666-95.061333-61.354666a57.685333 57.685333 0 0 0-58.624-2.133334h-0.170667l-3.413333 2.048v0.085334l-95.061334 61.44-95.317333-52.906667a57.258667 57.258667 0 0 0-74.581333 17.152l-1.877334 2.986667-0.170666 0.170666a53.589333 53.589333 0 0 0-7.424 27.221334V448.256h-68.522667a76.032 76.032 0 0 0-76.8 70.570667v0.170666l-0.085333 3.925334V724.48c0 39.765333 32.085333 72.533333 72.704 74.666667l4.096 0.085333h748.117333z m-608.597334-740.693333l81.322667 45.141333 6.570667 3.072a57.856 57.856 0 0 0 42.154666 0.170667l6.570667-3.072 0.170667-0.085334 3.413333-2.048 94.378667-61.013333 94.378666 60.928 6.4 3.584a57.770667 57.770667 0 0 0 42.069334 2.986667l6.741333-2.56 0.170667-0.170667 3.413333-1.792H665.6l81.237333-45.056V589.226667h-469.333333v-530.602667zM138.154667 730.368A6.058667 6.058667 0 0 1 132.266667 725.333333l-0.085334-1.024v-201.386666c0-2.730667 1.962667-5.12 4.949334-5.632l1.621333-0.170667h68.010667v72.021333H200.533333a34.986667 34.986667 0 0 0-35.328 32.853334 34.730667 34.730667 0 0 0 31.914667 36.010666h626.688a34.986667 34.986667 0 0 0 35.328-32.768 34.816 34.816 0 0 0-32-36.010666h-9.472v-72.106667h68.437333a6.058667 6.058667 0 0 1 5.973334 4.778667l0.170666 1.536V724.48a5.888 5.888 0 0 1-4.949333 5.717333H138.154667zM659.370667 294.741333c16.810667 0 30.72-11.264 31.573333-25.6 0.768-14.250667-11.776-26.538667-28.586667-27.904l-2.986666-0.170666h-294.4c-16.810667 0-30.72 11.264-31.488 25.6-0.853333 14.250667 11.690667 26.538667 28.501333 27.904l2.986667 0.170666h294.4z m0 142.848c16.810667 0 30.72-11.178667 31.573333-25.514666 0.768-14.250667-11.776-26.538667-28.586667-27.989334L659.370667 384h-294.4c-16.810667 0-30.72 11.178667-31.488 25.514667-0.853333 14.250667 11.690667 26.624 28.501333 27.989333l2.986667 0.085333h294.4z"  horiz-adv-x="1024" />
      
      <glyph glyph-name="a-tuichu1" unicode="&#59178;" d="M593.322667 832a21.333333 21.333333 0 0 0 21.333333-21.333333v-42.666667a21.333333 21.333333 0 0 0-21.333333-21.333333h-362.666667v-725.333334h362.666667a21.418667 21.418667 0 0 0 21.333333-21.333333v-42.666667a21.333333 21.333333 0 0 0-21.333333-21.333333h-362.666667a85.333333 85.333333 0 0 0-85.248 81.066667V746.666667a85.333333 85.333333 0 0 0 81.066667 85.248l4.266666 0.085333h362.666667z m194.56-219.562667L971.093333 429.226667a64 64 0 0 0 2.901334-87.381334l-2.901334-3.072-183.210666-183.210666a21.333333 21.333333 0 0 0-30.122667 0l-30.208 30.208a21.333333 21.333333 0 0 0 0 30.122666l125.44 125.44H422.656a21.333333 21.333333 0 0 0-21.333333 21.333334v42.666666a21.333333 21.333333 0 0 0 21.333333 21.333334h430.336l-125.44 125.44a21.333333 21.333333 0 0 0 0 30.122666l30.208 30.208a21.333333 21.333333 0 0 0 30.122667 0z"  horiz-adv-x="1109" />
      
      <glyph glyph-name="a-shezhi11" unicode="&#59179;" d="M1071.324507 490.117745c-6.309934 33.425597-26.689316 54.998751-52.014323 54.998751h-5.45724a132.679157 132.679157 0 0 0-132.508619 132.508618c0 23.704888 11.426097 50.308935 11.511367 50.564744a69.579815 69.579815 0 0 1-23.363811 83.99034l-1.705388 1.193772L733.657757 887.984678l-1.705388 0.682155a76.912982 76.912982 0 0 1-83.137647-16.54226c-14.666334-15.17795-65.572154-58.580065-104.625531-58.580065-39.394454 0-90.556083 44.254809-105.307685 59.688567a76.912982 76.912982 0 0 1-83.052378 17.224415l-1.705387-0.767424L214.878841 813.37397 213.173453 812.180198a69.409276 69.409276 0 0 1-23.534349-83.99034c0.170539-0.255808 11.596636-26.689316 11.596636-50.564744 0-73.07586-59.432759-132.508619-132.508619-132.508618H63.269881c-25.239737 0-45.619119-21.573153-52.014323-55.08402C10.914481 487.730202 0 429.576484 0 384.042635c0-45.44858 10.829211-103.602298 11.340828-106.075111 6.309934-33.425597 26.689316-54.998751 52.014322-54.998751h5.457241c73.07586 0 132.508619-59.432759 132.508618-132.508618 0-23.704888-11.426097-50.308935-11.511366-50.564743a69.665085 69.665085 0 0 1 23.36381-84.07561l1.534849-1.108502 131.741194-73.672746 1.705388-0.682155a75.633941 75.633941 0 0 1 83.393455 17.480224c18.759264 20.294113 69.494546 62.246648 107.013073 62.246648 40.588225 0 92.602548-46.983429 107.609959-63.44042 13.472562-14.836872 34.193022-23.704888 55.425098-23.704888a69.920893 69.920893 0 0 1 27.883088 5.627779l1.705388 0.682155 136.601548 75.463403 1.620119 1.193771a69.494546 69.494546 0 0 1 23.534349 83.905071c-0.170539 0.255808-11.596636 27.030394-11.596636 50.650013 0 73.07586 59.432759 132.508619 132.508619 132.508618h5.371971c25.325006 0 45.789658 21.573153 52.099592 54.998751 0.085269 0.596886 11.340828 59.432759 11.340827 106.075111 0 45.704388-10.829211 103.602298-11.340827 106.07511z m-694.092764-539.073029l-115.284204 64.463653c5.116163 13.046215 15.433758 43.487384 15.433758 74.951786A208.483637 208.483637 0 0 1 84.928304 298.432176a578.126405 578.126405 0 0 0-8.868016 85.610459c0 30.696977 6.224665 70.176701 8.868016 85.610459a208.483637 208.483637 0 0 1 192.452993 207.97202c0 31.379132-10.232326 61.735032-15.348488 74.781248l122.61737 67.362811c4.434008-4.519277 22.170039-22.08477 46.557082-39.479723 39.90607-28.394704 77.850945-42.805229 112.896661-42.80523 34.704638 0 72.478974 14.069448 112.043967 41.952536 24.301774 17.053876 41.867266 34.278291 46.301274 38.797568l118.183363-65.657423c-5.116163-13.131485-15.348489-43.487384-15.348489-75.037056 0-109.230077 84.07561-199.530352 192.452994-207.886751 2.558081-15.433758 8.868016-55.08402 8.868015-85.610459 0-30.696977-6.224665-70.176701-8.868015-85.610459a208.483637 208.483637 0 0 1-192.452994-208.05729c0-31.379132 10.232326-61.735032 15.348489-74.781248L700.914314-50.490132a371.603964 371.603964 0 0 1-46.642351 41.27038c-40.673495 30.185361-79.641602 45.53385-115.710551 45.53385-35.81314 0-74.44017-15.007411-114.857856-44.681156a374.417853 374.417853 0 0 1-46.471813-40.502956zM730.758598 384.72479a191.941377 191.941377 0 0 1-191.856108 191.770838 191.941377 191.941377 0 0 1-191.685569-191.770838 191.941377 191.941377 0 0 1 191.770838-191.685569A191.941377 191.941377 0 0 1 730.758598 384.72479zM538.90249 500.43534c63.866767 0 115.71055-51.929053 115.71055-115.71055S602.854526 269.099509 538.987759 269.099509a115.79582 115.79582 0 0 0-115.625281 115.625281c0 63.781497 51.843784 115.71055 115.625281 115.71055z"  horiz-adv-x="1108" />
      
      <glyph glyph-name="wenzhang" unicode="&#59180;" d="M864 725.333333c28.842667 0 42.922667-34.986667 22.186667-55.04-38.997333-37.546667-57.344-72.704-57.344-105.472 0-32.682667 18.261333-67.413333 57.173333-104.277333a32 32 0 0 0-19.2-55.125333l-2.816-0.085334h-554.666667a160 160 0 0 0-5.12 319.914667L309.248 725.333333h554.666667z m-68.352-64H391.509333a26.368 26.368 0 0 0 0.512-3.413333l0.085334-3.072v-72.448a32 32 0 0 0-63.829334-3.072l-0.170666 3.072v72.448c0 2.218667 0.256 4.352 0.682666 6.485333h-19.456a96 96 0 0 1-95.573333-86.869333l-0.341333-4.608-0.085334-4.522667a96 96 0 0 1 91.477334-95.914666L309.333333 469.333333H795.306667l-0.853334 1.194667a178.773333 178.773333 0 0 0-29.013333 81.408l-0.341333 6.826667-0.170667 6.058666c0 29.184 8.277333 57.770667 24.234667 85.76l3.84 6.485334 2.730666 4.266666z m-614.229333-640h554.666666a160 160 0 1 1 0 320h-554.666666a32 32 0 0 1-22.016-55.210666c38.912-36.949333 57.173333-71.68 57.173333-104.362667 0-32.682667-18.346667-67.84-57.344-105.386667a32 32 0 0 1 22.186667-55.04z m71.082666 68.266667c18.517333 30.037333 28.074667 60.842667 28.074667 92.16l-0.170667 6.058667a175.701333 175.701333 0 0 1-29.44 88.234666l-0.768 1.28h485.888A96 96 0 0 0 832 181.333333l-0.085333-4.522666A96 96 0 0 0 736.085333 85.333333H249.770667l2.730666 4.266667z"  horiz-adv-x="1024" />
      
      <glyph glyph-name="ceshi" unicode="&#59181;" d="M288 576a32 32 0 1 0 0 64H512a32 32 0 0 0 0-64H288z m0-160a32 32 0 1 0 0 64h128a32 32 0 1 0 0-64h-128z m351.402667-446.549333a32 32 0 0 0-64 0l0.597333 126.549333A96 96 0 0 0 672 192l127.744-1.194667a32 32 0 0 0 0-64L672 128a32 32 0 0 1-32-32l-0.597333-126.549333zM736 840.533333A104.533333 104.533333 0 0 0 840.533333 736l-0.853333-7.936a40.533333 40.533333 0 0 0-80.213333 7.936 23.466667 23.466667 0 0 1-23.466667 23.466667H192a23.466667 23.466667 0 0 1-23.466667-23.466667v-704a23.466667 23.466667 0 0 1 23.466667-23.466667h403.712l163.84 157.013334V310.272c0 12.970667 4.864 23.381333 12.8 30.378667 7.68 6.826667 17.834667 10.069333 27.648 10.069333 9.813333 0 19.882667-3.157333 27.648-10.069333 7.936-6.997333 12.8-17.408 12.8-30.378667v-146.688a43.093333 43.093333 0 0 0-3.413333-17.493333l0.170666-2.389334a40.533333 40.533333 0 0 0-13.141333-28.330666l0.085333-0.085334-180.309333-173.056a40.96 40.96 0 0 0-13.312-8.533333c-1.365333-0.597333-2.816-0.853333-4.266667-1.194667a40.448 40.448 0 0 0-19.029333-5.034666H192a104.533333 104.533333 0 0 0-104.533333 104.533333v704A104.533333 104.533333 0 0 0 192 840.533333h544zM867.413333 689.664c24.064-1.792 46.677333-11.861333 64-28.245333l7.082667-7.424 0.170667-0.256 0.256-0.256 6.314666-8.106667a103.936 103.936 0 0 0-16.554666-138.496L490.496 134.4a40.618667 40.618667 0 0 0-16.725333-8.533333l-6.314667-0.938667-114.944-8.96a40.789333 40.789333 0 0 0-42.922667 32.512 40.618667 40.618667 0 0 0 0.853334 19.370667L341.333333 273.322667l2.048 5.546666a40.533333 40.533333 0 0 0 10.496 13.909334L791.893333 665.002667l8.192 6.229333c19.626667 13.653333 43.434667 20.224 67.413334 18.432z m-5.973333-80.810667a23.722667 23.722667 0 0 1-13.312-2.901333l-3.669333-2.730667L415.744 238.933333l-11.093333-37.461333 43.349333 3.413333 427.349333 363.178667 3.072 3.242667a23.04 23.04 0 0 1 4.864 12.458666 23.125333 23.125333 0 0 1-5.546666 16.64l-0.170667 0.170667-0.256 0.341333-3.328 3.157334a23.637333 23.637333 0 0 1-12.544 4.864z"  horiz-adv-x="1024" />
      
      <glyph glyph-name="gengduoceshi" unicode="&#59182;" d="M360.533333 358.4c67.157333 0 121.514667-54.442667 121.514667-121.6v-128c0-67.157333-54.357333-121.6-121.514667-121.6h-128A121.6 121.6 0 0 0 110.933333 108.8v128c0 67.157333 54.442667 121.6 121.6 121.6h128z m-128-72.533333a49.066667 49.066667 0 0 1-49.152-49.066667v-128c0-27.050667 22.016-49.066667 49.152-49.066667h128a49.066667 49.066667 0 0 1 49.066667 49.066667v128a49.066667 49.066667 0 0 1-49.066667 49.066667h-128zM787.2 358.4c67.157333 0 121.514667-54.442667 121.514667-121.6v-128c0-67.157333-54.357333-121.6-121.514667-121.6h-128A121.6 121.6 0 0 0 537.6 108.8v128c0 67.157333 54.442667 121.6 121.6 121.6h128z m-128-72.533333a49.066667 49.066667 0 0 1-49.152-49.066667v-128c0-27.050667 22.016-49.066667 49.152-49.066667h128a49.066667 49.066667 0 0 1 49.066667 49.066667v128a49.066667 49.066667 0 0 1-49.066667 49.066667h-128zM360.533333 785.066667c67.157333 0 121.514667-54.442667 121.514667-121.6v-128c0-67.157333-54.357333-121.6-121.514667-121.6h-128A121.6 121.6 0 0 0 110.933333 535.466667v128c0 67.157333 54.442667 121.6 121.6 121.6h128z m-128-72.533334a49.066667 49.066667 0 0 1-49.152-49.066666v-128c0-27.050667 22.016-49.066667 49.152-49.066667h128a49.066667 49.066667 0 0 1 49.066667 49.066667v128a49.066667 49.066667 0 0 1-49.066667 49.066666h-128zM723.2 785.066667a185.6 185.6 0 1 0 0-371.2 185.6 185.6 0 0 0 0 371.2z m0-72.533334a113.066667 113.066667 0 1 1 0-226.133333 113.066667 113.066667 0 0 1 0 226.133333z"  horiz-adv-x="1024" />
      
      <glyph glyph-name="ceshijilu" unicode="&#59183;" d="M324.266667 759.466667a34.133333 34.133333 0 0 0 2.56-68.266667H204.8v-682.666667h614.4v682.666667H708.266667a34.133333 34.133333 0 0 0-2.56 68.181333H819.2a68.266667 68.266667 0 0 0 68.266667-64.853333v-686.08a68.266667 68.266667 0 0 0-64.853334-68.096l-3.413333-0.085333H204.8a68.266667 68.266667 0 0 0-68.181333 64.853333V691.2a68.266667 68.266667 0 0 0 64.853333 68.181333H324.266667zM631.466667 827.733333H392.533333c-56.405333 0-102.4-45.994667-102.4-102.4 0-56.405333 45.994667-102.4 102.4-102.4h238.933334c56.32 0 102.4 45.994667 102.4 102.4 0 56.32-46.08 102.4-102.4 102.4z m-238.933334-68.266666h238.933334c18.688 0 34.133333-15.445333 34.133333-34.133334 0-18.773333-15.445333-34.133333-34.133333-34.133333H392.533333a34.304 34.304 0 0 0-34.133333 34.133333c0 18.688 15.36 34.133333 34.133333 34.133334zM496.810667 537.6A189.610667 189.610667 0 0 0 652.8 240.298667l71.082667-71.082667-48.298667-48.298667-70.997333 71.082667A189.610667 189.610667 0 1 0 496.810667 537.6z m0-68.266667a121.344 121.344 0 1 1 0-242.688 121.344 121.344 0 0 1 0 242.688z"  horiz-adv-x="1024" />
      
      <glyph glyph-name="shouye" unicode="&#59184;" d="M788.394667-84.48h-550.4A192.597333 192.597333 0 0 0 45.738667 107.946667V453.632c0 59.904 28.501333 117.248 76.202666 153.344L397.056 815.36a193.109333 193.109333 0 0 0 232.277333 0L904.533333 606.976c47.786667-36.096 76.202667-93.44 76.202667-153.344v-345.685333a192.597333 192.597333 0 0 0-192.341333-192.426667zM513.194667 772.437333c-23.552 0-47.018667-7.424-66.730667-22.272L171.349333 541.696c-27.392-20.736-43.776-53.76-43.776-88.064v-345.685333c0-61.013333 49.493333-110.592 110.506667-110.592h550.4c60.928 0 110.506667 49.578667 110.506667 110.592V453.632c0 34.474667-16.384 67.413333-43.776 88.064L580.010667 750.165333a110.592 110.592 0 0 1-66.816 22.272zM649.898667 139.349333H376.576a35.84 35.84 0 1 0 0 71.68h273.322667a35.84 35.84 0 1 0 0-71.68z"  horiz-adv-x="1024" />
      
      <glyph glyph-name="a-xueshimao1" unicode="&#59185;" d="M186.538667 338.773333v-179.2l325.205333-169.642666 325.418667 169.642666v179.2l-325.162667-169.642666-325.418667 169.6z m325.461333 455.424l-512-267.733333 512-267.648 418.688 218.752v-308.48h93.312V526.506667l-512 267.733333z"  horiz-adv-x="1044" />
      
      <glyph glyph-name="renjiguanxi" unicode="&#59186;" d="M834.005333 850.389333a144.981333 144.981333 0 1 0-103.637333-246.272l-34.986667-36.053333a213.248 213.248 0 0 0 62.208-150.826667c0-56.746667-22.058667-108.458667-58.026666-146.688l59.434666-54.698666a160.853333 160.853333 0 0 0 102.656 36.949333 161.493333 161.493333 0 1 0-122.965333-56.874667l-60.117333 55.168a212.906667 212.906667 0 0 0-135.04-48.042666 213.717333 213.717333 0 0 0-146.602667 57.941333l-29.824-30.72a199.68 199.68 0 1 0-165.290667 87.722667c58.453333 0 111.061333-25.130667 147.584-65.194667l28.202667 29.013333a212.736 212.736 0 0 0-48.213333 135.424c0 44.672 13.653333 86.229333 37.12 120.533334L301.098667 598.016a118.912 118.912 0 1 0 17.493333 22.442667l65.536-60.202667a213.930667 213.930667 0 0 0 289.962667 26.709333l38.357333 39.466667a144.896 144.896 0 0 0 121.6 223.957333zM435.413333 302.933333h222.805334s4.693333 30.165333-0.469334 46.634667c-5.077333 16.469333-51.754667 72.533333-60.117333 75.093333-3.157333 0.896-18.048 1.28-35.584 1.152 23.552 10.112 40.704 40.149333 40.704 67.456 0 33.621333-25.898667 60.8-57.984 60.8-31.872 0-57.856-27.178667-57.856-60.8 0-27.648 17.621333-58.154667 41.770667-67.925333l-33.621334-0.682667s-56.746667-41.386667-59.648-78.421333c-2.986667-37.205333 0-43.306667 0-43.306667z"  horiz-adv-x="1024" />
      
      <glyph glyph-name="a-zhichang1" unicode="&#59187;" d="M864.213333 643.584h-112.64v70.4a112.597333 112.597333 0 0 1-112.597333 112.64H385.493333a112.597333 112.597333 0 0 1-112.64-112.64v-70.4H160.341333a84.48 84.48 0 0 1-84.48-84.48v-98.56h872.874667v98.56a84.48 84.48 0 0 1-84.48 84.48z m-197.12 0H357.376v42.24c0 31.061333 25.216 56.32 56.32 56.32h197.12c31.061333 0 56.277333-25.258667 56.277333-56.32v-42.24z m98.56-352a42.24 42.24 0 0 0-84.352 0v84.48H343.296v-84.48a42.24 42.24 0 0 0-84.394667 0v84.48h-183.04v-323.754667a84.48 84.48 0 0 1 84.522667-84.48h704a84.48 84.48 0 0 1 84.48 84.48v323.797334h-182.954667v-84.48h-0.213333z"  horiz-adv-x="1024" />
      
      <glyph glyph-name="mingren" unicode="&#59188;" d="M812.458667 372.821333l124.117333 211.456a29.952 29.952 0 0 1 0 30.762667 31.914667 31.914667 0 0 1-27.008 15.658667h-245.973333l-15.104 25.898666-3.242667 4.821334-106.837333 185.045333a30.378667 30.378667 0 0 1-52.864 0.554667l-127.317334-216.32H114.901333a30.634667 30.634667 0 0 1-26.965333-15.658667 31.232 31.232 0 0 1 0-30.72l122.453333-211.498667-121.898666-214.186666a31.232 31.232 0 0 1 0-30.72 31.018667 31.018667 0 0 1 26.453333-15.146667h243.285333l127.317334-216.874667a31.018667 31.018667 0 0 1 26.453333-15.104 32.426667 32.426667 0 0 1 26.965333 15.658667l124.074667 216.32h246.016c11.306667 0 21.589333 5.973333 26.965333 15.104a31.232 31.232 0 0 1 0 30.72l-123.562666 214.186667z m42.666666 196.352l-78.250666-134.826666-77.653334 134.826666h155.861334z m-343.68 200.704l80.384-139.178666h-162.389333l82.005333 139.178666zM168.32 569.173333h153.216l-77.141333-131.072v-0.554666L168.32 569.173333z m-0.512-394.88l78.208 137.002667 78.762667-137.002667h-157.013334z m343.637333-201.258666l-82.005333 139.733333h162.389333l-80.384-139.733333z m133.802667 427.818666h-111.146667a30.549333 30.549333 0 0 0 6.997334-19.413333v-131.626667c0-16.725333-13.994667-30.762667-30.72-30.762666a30.72 30.72 0 0 0-30.762667 30.72V381.44c0 7.552 2.688 14.037333 6.997333 19.413333H376.021333a30.72 30.72 0 0 0-30.72 30.72c0 16.768 13.994667 30.805333 30.72 30.805334h269.226667a30.72 30.72 0 0 0 30.72-30.762667c0-16.725333-13.994667-30.72-30.72-30.72z m87.893333-226.56h-35.029333l78.208 136.490667 79.317333-136.533333h-122.453333z"  horiz-adv-x="1024" />
      
      <glyph glyph-name="a-Frame1" unicode="&#59175;" d="M132.6 522.064c0 107.48 52.304 212.704 146.4 270.76l3.856 2.4c40.176 24.56 90.336 41.6 151.64 47.728a42.672 42.672 0 0 0 8.496-84.904c-51.768-5.184-90.112-19.44-118.336-37.32l-0.256-0.152-0.24-0.16c-66.672-40.96-106.24-117.336-106.24-198.352V406.8l-74.064-91.072 8.792-3.104 0.56-0.2 0.56-0.208c27.864-10.72 51.72-36.544 52.608-72.272l9.104-136.48 0.072-0.344c0.24-0.944 0.656-1.976 1.184-2.76 0.36-0.56 0.824-1.096 1.92-1.68 1.144-0.608 4.824-2.232 12.984-2.232 18.192 0 55.304 4.928 95.456 14.864 40.672 10.064 77.44 23.576 97.984 37.568l1.856 1.184a42.664 42.664 0 0 0 46.168-71.72l-3.184-2.12c-33.392-21.728-80.64-37.432-122.32-47.752-43.552-10.776-88.128-17.36-115.96-17.36-42.136 0.008-70.32 18.384-86.048 42.12a94.736 94.736 0 0 0-14.688 38.784 75.064 75.064 0 0 0-0.496 4.688l-0.016 0.272-9.088 136.216-36.184 12.768h0.008c-39.64 13.736-57.504 63.776-27.808 98.584l75.28 92.576V522.064zM309.616 104.48a42.664 42.664 0 0 0 53.216-24.928l0.752-2.064 42.664-128 0.64-2.096a42.68 42.68 0 0 0-80.84-26.952l-0.752 2.064-42.664 128-0.64 2.104a42.672 42.672 0 0 0 27.624 51.864zM614.872 660.136a54.08 54.08 0 1 1 0 108.16 54.08 54.08 0 0 1 0-108.16zM647.616 714.216a32.744 32.744 0 1 1-65.488 0 32.744 32.744 0 0 1 65.488 0z m42.664 0a75.408 75.408 0 0 0-75.408-75.408 75.416 75.416 0 1 0 75.408 75.408zM917.328 725.328a64 64 0 1 1 0.008 128.008 64 64 0 0 1-0.008-128zM960 789.328a42.664 42.664 0 1 1-85.328 0 42.664 42.664 0 0 1 85.328 0z m42.664 0c0-47.12-38.2-85.328-85.328-85.328C870.2 704 832 742.208 832 789.328c0 47.136 38.2 85.344 85.336 85.344 47.128 0 85.328-38.208 85.328-85.344zM810.664 533.336a42.672 42.672 0 1 1 0 85.336 42.672 42.672 0 0 1 0-85.336zM832 576a21.328 21.328 0 1 1-42.664 0A21.328 21.328 0 0 1 832 576z m42.664 0a64 64 0 1 0-128 0 64 64 0 0 0 128 0zM551.92 188.4a36.816 36.816 0 1 1 0 73.64 36.816 36.816 0 0 1 0-73.632zM567.408 225.224a15.488 15.488 0 1 1-30.968 0 15.488 15.488 0 0 1 30.968 0z m42.664 0a58.152 58.152 0 1 0-116.304 0 58.152 58.152 0 0 0 116.304 0zM390.544 597.336a42.664 42.664 0 1 1 0 85.328 42.664 42.664 0 0 1 0-85.328zM411.872 640a21.336 21.336 0 1 1-42.664-0.008A21.336 21.336 0 0 1 411.872 640z m42.664 0a64 64 0 1 0-128 0 64 64 0 0 0 128 0zM700 313.824a47.176 47.176 0 1 1 0 94.344 47.176 47.176 0 0 1 0-94.344zM725.848 360.992a25.84 25.84 0 1 1-51.68-0.008 25.84 25.84 0 0 1 51.68 0.008z m42.664 0a68.512 68.512 0 1 0-137.016 0 68.512 68.512 0 0 0 137.016 0zM363.096 319.136a64.432 64.432 0 1 1 0 128.864 64.432 64.432 0 0 1 0-128.864zM406.2 383.568A43.096 43.096 0 1 1 320 383.56a43.096 43.096 0 0 1 86.2 0.008z m42.664 0c0-47.36-38.4-85.76-85.76-85.76-47.368 0-85.768 38.4-85.768 85.76 0 47.36 38.4 85.76 85.76 85.76 47.368 0 85.76-38.4 85.76-85.76zM406.424 613.456a21.336 21.336 0 0 0 28.584-0.576l1.52-1.576 55.456-64 1.352-1.72a21.344 21.344 0 0 0-32.08-27.8l-1.52 1.576-55.464 64-1.344 1.72a21.344 21.344 0 0 0 3.496 28.376zM579.968 540.88a21.328 21.328 0 0 0-40.64 12.992l40.64-13z m-4.2 126.64a21.336 21.336 0 0 0 40.424-12.928l-0.56-2.104-35.664-111.616-40.64 13 35.664 111.6 0.776 2.048zM761.32 574.92A21.336 21.336 0 0 0 776.72 535.2l-142.8-64a21.336 21.336 0 0 0-17.448 38.936l142.8 64 2.04 0.784zM530.24 270.088v117.36a21.336 21.336 0 0 0 42.68 0v-117.36a21.336 21.336 0 0 0-42.672 0zM462.264 446.8a21.336 21.336 0 0 0 18.08-38.4l-1.928-1.04-42.664-20.08-2.024-0.824a21.336 21.336 0 0 0-16.152 39.432l42.664 20.08 2.024 0.832zM848.4 463.168a42.672 42.672 0 0 0 85.096-6.448l-42.544 3.216 42.544-3.224v-0.016l-0.008-0.04-0.008-0.12-0.032-0.376-0.112-1.336c-0.088-1.136-0.232-2.792-0.424-4.896-0.392-4.208-0.984-10.264-1.824-17.856-1.68-15.176-4.352-36.544-8.368-61.584-7.96-49.712-21.432-115.4-43.448-175.96l-0.056-0.144-0.056-0.16c-17.752-47.68-24.048-105.24-25.48-152.84a767.584 767.584 0 0 1 0.448-57.944 588.208 588.208 0 0 1 1.32-20.76l0.088-0.976 0.024-0.192v-0.024l0.152-2.152a42.664 42.664 0 0 0-85.072-6.192l42.456 4.192-42.456-4.184-0.008 0.016v0.056l-0.016 0.136a854.672 854.672 0 0 0-2.224 90.584c1.536 51.168 8.264 119.36 30.688 179.752 19.392 53.344 31.816 113.072 39.384 160.296 3.752 23.44 6.256 43.408 7.816 57.472 0.776 7.016 1.312 12.544 1.656 16.272l0.368 4.184 0.08 1 0.016 0.208v0.04zM554.664 384C601.792 384 640 422.208 640 469.336c0 47.12-38.208 85.328-85.336 85.328-47.12 0-85.328-38.2-85.328-85.328C469.328 422.2 507.528 384 554.656 384zM618.672 469.328a64 64 0 1 1-128.008 0 64 64 0 0 1 128 0z m42.656 0c0-58.904-47.752-106.664-106.656-106.664-58.912 0-106.672 47.76-106.68 106.664C448 528.24 495.76 576 554.672 576s106.672-47.76 106.672-106.672z"  horiz-adv-x="1024" />
      
      <glyph glyph-name="guoqi1" unicode="&#59174;" d="M512 896a512 512 0 1 0 0-1024.073143A512 512 0 0 0 512 896z m0-658.285714a48.786286 48.786286 0 1 1-2.925714-97.426286A48.786286 48.786286 0 0 1 512 237.714286z m7.68 390.070857h-15.286857a48.786286 48.786286 0 0 1-48.566857-53.101714l23.04-257.828572a33.353143 33.353143 0 0 1 66.340571 0l23.04 257.828572a48.786286 48.786286 0 0 1-48.566857 53.101714z"  horiz-adv-x="1024" />
      
      <glyph glyph-name="beijinggou" unicode="&#59160;" d="M941.419355 384C941.419355 621.171613 749.171613 813.419355 512 813.419355S82.580645 621.171613 82.580645 384s192.247742-429.419355 429.419355-429.419355 429.419355 192.247742 429.419355 429.419355z m66.064516 0c0-273.655742-221.828129-495.483871-495.483871-495.483871C238.344258-111.483871 16.516129 110.344258 16.516129 384 16.516129 657.655742 238.344258 879.483871 512 879.483871c273.655742 0 495.483871-221.828129 495.483871-495.483871zM768 526.930581c0.082581-5.450323-1.073548-10.851097-3.418839-15.772904-1.882839-4.789677-4.690581-9.149935-8.27458-12.816516L474.260645 212.975484a39.936 39.936 0 0 0-28.24258-11.825549 41.736258 41.736258 0 0 0-28.242581 11.825549l-112.540903 114.341161a41.026065 41.026065 0 0 0-9.249033 12.816516 43.602581 43.602581 0 0 0-3.418838 15.772904c0 5.400774 0.990968 10.735484 2.923355 15.772903a40.794839 40.794839 0 0 0 21.933419 22.181161c4.954839 1.981935 10.24 2.972903 15.57471 2.956387 5.400774 0.082581 10.735484-1.090065 15.591225-3.468387 4.954839-2.180129 9.43071-5.367742 13.146839-9.348129l84.281807-85.272774L699.788387 555.024516a38.218323 38.218323 0 0 0 28.242581 11.825549 38.581677 38.581677 0 0 0 28.24258-11.825549c3.484903-3.749161 6.276129-8.092903 8.291097-12.816516 2.279226-4.756645 3.451871-9.992258 3.418839-15.277419z"  horiz-adv-x="1024" />
      
      <glyph glyph-name="zuoyounaoceshi" unicode="&#59165;" d="M0 896m256 0l512 0q256 0 256-256l0-512q0-256-256-256l-512 0q-256 0-256 256l0 512q0 256 256 256ZM544 192V560c0 16 12.8 48 64 48s64-64 64-96c21.3248-5.3248 64-25.6 64-64s-32-58.6752-48-64c16-10.6752 48-41.6 48-80S682.6752 256 656 256c5.3248-26.6752 6.4-83.2-32-96s-69.3248 16-80 32zM396.8256 473.216c-1.4336 0-2.8672 0-4.3264 1.4592-31.6672 11.52-53.248 41.7536-53.248 74.88 0 43.1872 35.968 79.1808 79.1808 79.1808 43.1872 0 79.2064-35.9936 79.2064-79.1808 0-8.6528-5.76-14.4128-14.4128-14.4128-8.6272 0-14.3872 5.76-14.3872 14.4128 0 27.3664-23.04 50.3808-50.432 50.3808-27.3408 0-50.3808-23.04-50.3808-50.3808 0-21.6064 12.9536-40.32 33.1264-47.5392 7.1936-2.8672 11.52-11.52 8.6272-18.688a13.824 13.824 0 0 0-12.9536-10.112z m86.4-129.5872c-8.6272 0-14.3872 7.1936-14.3872 15.8464 0 8.6272-1.4592 17.28-5.76 25.9072-5.76 11.52-17.28 20.1728-28.8 24.4992-12.9792 4.3008-25.9328 2.8672-38.912-2.8928-7.168-4.3264-15.8208-1.4336-20.1472 5.76-4.3008 7.1936-1.4336 15.8464 5.76 20.1472 18.7392 10.0864 40.32 11.52 60.4928 5.7856 20.1472-5.7856 35.9936-20.1728 46.08-38.912a70.912 70.912 0 0 0 8.6272-41.728c1.4592-8.6528-5.76-14.4128-12.9536-14.4128z m-64.7936-204.4672a78.4128 78.4128 0 0 0-56.1664 23.04c-23.04 23.04-30.2336 60.4672-15.8464 90.7008 2.8928 7.1936 11.52 10.0864 18.7392 7.1936 7.168-2.8672 10.0608-11.52 7.168-18.688a50.9184 50.9184 0 0 1 10.112-57.6 50.432 50.432 0 0 1 71.9872 0 50.432 50.432 0 0 1 0 71.9872 13.9264 13.9264 0 0 0 0 20.1472 13.9264 13.9264 0 0 0 20.1728 0c30.208-30.2336 30.208-80.64 0-112.3072a74.4192 74.4192 0 0 0-56.1664-24.4736zM346.4448 369.6128c-43.1872 0-79.1808 36.0192-79.1808 79.2064 0 43.2128 35.9936 79.2064 79.1808 79.2064 8.6528 0 17.28-1.4336 24.4992-4.3264 7.168-2.8928 11.52-10.0864 8.6272-18.7136a14.4128 14.4128 0 0 0-18.7136-8.6528c-5.76 1.4336-10.0864 2.8928-15.8464 2.8928-27.3664 0-50.4064-23.04-50.4064-50.4064s23.04-50.4064 50.4064-50.4064c8.6528 0 14.4128-5.76 14.4128-14.3872 0-8.6528-4.352-14.4128-12.9792-14.4128z m136.8064-172.8c-7.1936 0-14.4128 7.2192-14.4128 14.4128v345.6c0 7.1936 7.2192 14.3872 14.4128 14.3872 8.6528 0 14.4128-7.1936 14.4128-14.3872v-345.6a14.4384 14.4384 0 0 0-14.4128-14.4128zM418.4064 139.1872c-24.4736 0-50.3808 11.52-64.768 34.56a80.128 80.128 0 0 0 1.408 92.16c4.352 5.7856 12.9792 7.2192 20.1728 2.8928 7.1936-4.3264 7.1936-12.9536 2.8672-20.1728-12.9536-17.2544-12.9536-40.32 0-59.0336a50.816 50.816 0 0 1 70.5792-12.9536 50.7904 50.7904 0 0 1 12.9536 70.5536c-4.3264 7.2192-2.8928 15.8464 4.3264 20.1728 7.168 4.3264 15.8208 2.8672 20.1472-4.3264a80.5376 80.5376 0 0 0-20.1472-110.8736c-15.872-8.6528-31.6928-12.9536-47.5392-12.9536zM346.4448 239.9744c-43.1872 0-79.1808 36.0192-79.1808 79.2064 0 43.2128 35.9936 79.2064 79.1808 79.2064 8.6528 0 14.4128-5.76 14.4128-14.4128 0-8.6272-5.76-14.3872-14.4128-14.3872-27.3664 0-50.3808-23.04-50.3808-50.4064s23.04-50.4064 50.3808-50.4064c27.3664 0 50.4064 23.04 50.4064 50.4064 0 8.6272 5.76 14.4128 14.3872 14.4128 8.6528 0 14.4128-5.7856 14.4128-14.4128 0-43.2128-35.9936-79.2064-79.2064-79.2064z m280.8064 233.2928a13.824 13.824 0 0 0-12.9536 10.0864c-2.8928 7.168 1.4336 15.8208 8.6272 18.688a49.792 49.792 0 0 1 33.1264 47.5392c0 27.3664-23.04 50.4064-50.4064 50.4064s-50.4064-23.04-50.4064-50.4064c0-8.6528-5.7344-14.4128-14.3872-14.4128-8.6272 0-14.4128 5.7856-14.4128 14.4128 0 43.2128 36.0192 79.2064 79.2064 79.2064 43.2128 0 79.2064-35.9936 79.2064-79.2064 0-33.1264-21.6064-63.36-53.2736-74.88-1.4336 0-2.8928-1.4336-4.3264-1.4336z m-86.4-129.6128c-7.1936 0-14.4128 5.76-14.4128 12.9536-1.4336 14.4128 2.8928 28.8 8.6528 41.7792 10.0864 18.7136 25.9072 33.1008 46.08 38.8608 20.1472 5.7856 41.7536 4.352 60.4672-5.7344 7.2192-4.352 10.0864-12.9792 5.7856-20.1728-4.352-7.1936-12.9792-10.0864-20.1728-5.76a51.7632 51.7632 0 0 1-38.8864 2.8928c-12.9536-4.352-23.04-12.9792-28.8-24.4992a56.4992 56.4992 0 0 1-5.76-25.9072c1.4336-5.76-4.3008-12.9536-12.9536-14.4128z m64.7936-204.4672a78.3872 78.3872 0 0 0-56.1664 23.04c-30.208 30.2336-30.208 80.64 0 112.3072a13.9264 13.9264 0 0 0 20.1728 0 13.9264 13.9264 0 0 0 0-20.1472 50.432 50.432 0 0 1 0-72.0128 50.432 50.432 0 0 1 72.0128 0c14.3872 14.4128 18.688 38.8864 10.0608 57.6-2.8672 7.2192 0 15.8464 7.2192 18.7392 7.168 2.8672 15.8208 0 18.688-7.2192a79.3088 79.3088 0 0 0-15.8208-90.7264 83.3024 83.3024 0 0 0-56.1664-21.5808zM677.5808 369.6128c-8.6528 0-14.4128 5.76-14.4128 14.4128 0 8.6272 5.76 14.3872 14.4128 14.3872 27.3664 0 50.3808 23.04 50.3808 50.4064s-23.04 50.4064-50.3808 50.4064c-5.76 0-11.52-1.4336-15.8464-2.8928-7.1936-2.8672-15.8464 1.4336-18.7136 8.6528-2.8928 7.1936 1.4336 15.8208 8.6272 18.7136 8.6528 2.8672 15.8464 4.3264 24.4992 4.3264 43.1872 0 79.1808-35.9936 79.1808-79.2064s-34.56-79.2064-77.7472-79.2064z m-136.8064-172.8c7.1936 0 14.4128 7.2192 14.4128 14.4128v345.6c0 7.1936-7.2192 14.3872-14.4128 14.3872a14.4384 14.4384 0 0 1-14.4128-14.3872v-345.6c0-8.6528 7.2192-14.4128 14.4128-14.4128zM605.5424 139.2128c-15.8208 0-31.6672 4.3264-44.6208 14.3872-36.0192 24.4992-44.6464 74.88-20.1728 110.8992 4.3264 7.168 12.9536 8.6272 20.1728 4.3008 7.168-4.3008 8.6272-12.9536 4.3008-20.1472-15.8208-23.04-10.0608-54.7328 12.9792-70.5536 23.04-15.872 54.7072-10.0864 70.5536 12.9536 11.52 17.28 11.52 40.32 0 59.0336-4.3264 5.76-2.8928 15.8464 2.8672 20.1728 5.76 4.3008 15.872 2.8672 20.1728-2.8928 20.1472-27.3664 20.1472-63.36 1.4336-92.16-18.7136-24.4736-43.1872-35.9936-67.6864-35.9936zM677.5808 240c-43.2128 0-79.2064 35.9936-79.2064 79.1808 0 8.6528 5.76 14.4128 14.4128 14.4128 8.6272 0 14.3872-5.76 14.3872-14.4128 0-27.3664 23.04-50.3808 50.4064-50.3808s50.3808 23.04 50.3808 50.3808c0 27.3664-23.04 50.4064-50.3808 50.4064-8.6528 0-14.4128 5.76-14.4128 14.4128 0 8.6272 5.76 14.3872 14.4128 14.3872 43.1872 0 79.1808-35.9936 79.1808-79.2064 0-43.1872-35.9936-79.1808-79.1808-79.1808z"  horiz-adv-x="1024" />
      
      <glyph glyph-name="mingxiangrumen" unicode="&#59166;" d="M0 896m256 0l512 0q256 0 256-256l0-512q0-256-256-256l-512 0q-256 0-256 256l0 512q0 256 256 256ZM471.296 322.4064a24.0128 24.0128 0 0 0 23.9104-36.1984l-1.3312-1.9456-19.712-26.3168-0.4096-0.5632a104.9856 104.9856 0 0 0-7.808-9.6256l-0.128-0.128c-6.8096-7.168-15.1552-12.7232-24.3968-16.256h-0.1024c-3.7632-1.408-7.68-2.3808-11.8528-3.4816l-0.4352-0.1024-0.768-0.128-37.8368-9.472 0.0256-0.0512a11.9808 11.9808 0 0 1 2.8928-23.5008h14.5408c31.232 0 61.6448 10.112 86.6304 28.8768l40.448 30.3104 1.9456 1.3312a23.9872 23.9872 0 0 0 28.6464-38.2208l-1.792-1.5104-7.6288-5.6832c9.216-3.456 13.6704-5.0688 18.0992-6.4768l11.264-3.1488c11.3152-2.7904 22.912-4.5056 34.6112-5.1712 5.12-0.256 10.368-0.2816 22.6304-0.2816h19.968a11.9808 11.9808 0 0 1 2.8672 23.5008l-31.3344 7.8848-1.7408 0.4096h-0.0512c-9.8816 2.4832-19.0208 4.6848-27.3408 9.472a67.6096 67.6096 0 0 0-3.584 2.2528l-3.456 2.4064a80.7168 80.7168 0 0 0-14.8224 15.5648l-4.5312 6.016-1.0752 1.4336-15.488 20.6336a24.0896 24.0896 0 0 0-1.4592 26.624 24.064 24.064 0 0 0 39.8592 2.176l15.488-20.6848 8.064-10.4192a17.6384 17.6384 0 0 1 4.9664-4.4032l1.4336-0.6912c1.8432-0.7168 5.4272-1.7664 15.36-4.2496l31.4112-7.8336 5.2224-1.5872a59.9552 59.9552 0 0 0-14.2848-116.2752l-5.4528-0.256h-20.5568c-5.7088 0-10.24 0-14.1568 0.0512l-10.624 0.3328a237.7728 237.7728 0 0 0-50.5088 8.3456l-7.04 2.0992a243.0976 243.0976 0 0 0-9.984 3.4048l-13.2864 4.9408-26.88 10.0608a192.4352 192.4352 0 0 0-94.8224-29.1072l-6.9888-0.128h-14.592a59.9808 59.9808 0 0 0-14.5408 118.1184l38.2464 9.5488 7.2704 1.9456 1.8944 0.8448a18.7904 18.7904 0 0 1 4.9664 3.712c0.5632 0.6144 1.28 1.5104 4.608 5.9392l19.712 26.2912 1.5104 1.8432a24.1152 24.1152 0 0 0 14.2848 7.5264z m56.6784 298.9312a77.3632 77.3632 0 0 0 77.3888-77.2864l-0.384-7.6544a77.3888 77.3888 0 0 0-54.1184-66.2528l2.176-0.256 19.0208-3.2 5.7856-1.1264c59.4944-12.8256 102.144-65.9456 102.144-127.4624 0-9.856 4.8896-18.9696 12.8512-24.3456l2.176-1.4592 3.8912-2.2528c1.3056-0.64 2.688-1.2032 4.0704-1.6896l24.3968-8.2176a24.192 24.192 0 0 0 14.5152-11.9808 24.1152 24.1152 0 0 0-3.3792-27.0336 24.064 24.064 0 0 0-26.1888-6.528l-24.6784 8.32a81.3056 81.3056 0 0 0-19.456 9.5744l-0.0512 0.0512-2.0736 1.4336a77.312 77.312 0 0 0-33.8944 59.392l-0.128 4.736a82.176 82.176 0 0 1-60.7488 79.6672l-7.2192 1.5872-18.7392 3.1744a117.7856 117.7856 0 0 1-17.1776 0.9728l-1.9968-0.0256a116.224 116.224 0 0 1-15.1808-0.896l0.0256-0.0256-19.0208-3.2c-39.04-6.6048-67.968-40.832-67.968-81.2544l-0.128-4.7104a77.3632 77.3632 0 0 0-33.792-59.3152v-0.0512l-2.1504-1.5104-0.128-0.0512a81.3056 81.3056 0 0 0-19.456-9.5488v-0.0256l-24.6784-8.3456a24.0384 24.0384 0 0 0-15.36 45.5168l24.7552 8.32c2.7904 0.9472 5.4528 2.2784 7.9104 3.9168l0.0512 0.0256 2.1248 1.4336 2.816 2.176a29.44 29.44 0 0 1 10.0352 22.144l0.128 5.9648c2.7392 60.928 47.3088 112.4352 107.8272 122.624l18.9696 3.2256h0.256l1.9968 0.256a77.312 77.312 0 0 0-54.528 73.8304l0.384 7.6032a77.3376 77.3376 0 0 0 76.928 69.7856z m0.0256-48.0256a29.44 29.44 0 0 1-29.312-29.3376 29.4656 29.4656 0 0 1 8.576-20.736 29.3888 29.3888 0 0 1 20.736-8.576l2.8928 0.128a29.3376 29.3376 0 0 1 0 58.368l-2.8928 0.1792z"  horiz-adv-x="1024" />
      
      <glyph glyph-name="lijierengetezheng" unicode="&#59167;" d="M0 896m256 0l512 0q256 0 256-256l0-512q0-256-256-256l-512 0q-256 0-256 256l0 512q0 256 256 256ZM490.1888 486.912c-0.4864 0-0.4864 0 0 0h-0.4864c-25.6 0-48.8192-14.2336-60.2112-36.992-11.3664-22.7584-9.472-50.2528 5.7088-70.656l0.4608-0.4608c31.744-38.4 91.4944-92.928 93.8752-95.2832a9.984 9.984 0 0 1 6.144-2.3552 9.984 9.984 0 0 1 6.1696 2.3552c2.3808 2.3808 62.592 56.8832 93.8752 95.2832 0 0.4864 0.4864 0.4864 0.4864 0.9472 15.1552 20.4032 17.0496 47.872 5.6832 70.656a67.584 67.584 0 0 1-60.2112 36.9664h-0.4864c-17.0496 0-33.6384-6.656-45.4912-18.944a65.408 65.408 0 0 1-45.5168 18.4832zM533.8112 619.5712c105.984 0 193.3568-77.7216 210.3552-178.7648l1.4336-9.856 0.0256-0.1536 0.9984-12.288c3.6096-60.3904-13.0816-106.9824-31.3856-139.008-9.7536-17.024-19.968-29.9264-27.7504-38.6048a168.2432 168.2432 0 0 0-12.3648-12.3904l-0.7936-0.7168-0.2304-0.1536-0.0512-0.0768-0.0512-0.0256-1.3824-1.1264-1.6896-0.4352c-8.192-2.1248-15.1808-2.2528-20.864-0.1536a19.3792 19.3792 0 0 0-11.4176 11.008 27.52 27.52 0 0 0-1.8432 11.264 34.1248 34.1248 0 0 0 0.512 4.8128c0 0.128 0.0512 0.256 0.0768 0.3584V253.44l0.512 2.2016 1.536 1.6384c85.3504 88.9856 61.9008 180.224 47.2832 216.9088l-2.5088 5.4272a167.0144 167.0144 0 0 1-150.4 94.5408 167.6288 167.6288 0 0 1-167.424-167.424c0-0.8448 0-2.432-0.2816-4.2496a23.6288 23.6288 0 0 0-6.2976-20.352l-0.0768-0.0512a252.416 252.416 0 0 1-27.0336-31.104c-3.5072-4.864-6.2464-9.1648-8.064-12.6464a35.328 35.328 0 0 1-1.664-3.584 26.6752 26.6752 0 0 1 5.8368-1.024l0.2048-0.0512h2.7136l1.2544-0.384 0.9984-0.3328 43.1872-9.3952 6.0672-1.3312 0.256-6.1696 4.7104-121.7536h74.496l2.3296-0.1024a22.8096 22.8096 0 0 0 20.3776-22.6048 22.784 22.784 0 0 0-22.7072-22.6816H387.328c-24.6272 0-44.8 19.968-44.9792 44.2112l-3.584 92.416-13.2096 2.816a60.3648 60.3648 0 0 0-31.1552 10.0096A40.5248 40.5248 0 0 0 276.4288 332.8c0 7.424 2.432 15.104 5.7088 22.272a135.936 135.936 0 0 0 12.7488 21.3504c8.7296 12.288 18.944 23.6032 26.1376 31.1808 0.4608 116.864 95.8464 211.968 212.8128 211.968z m53.0944-124.3648c26.112-1.8432 50.1504-17.3056 62.1312-41.216l2.176-4.8128a75.6736 75.6736 0 0 0-7.5008-72.6016v-0.6144l-1.792-2.2016c-15.9488-19.584-39.1424-43.0848-58.4192-61.824a1779.072 1779.072 0 0 0-32.768-31.0784l-2.3296-2.1504-0.6912-0.64-0.2048-0.1792-0.4096-0.4096-0.4352-0.3584a17.9712 17.9712 0 0 0-11.008-3.968 17.92 17.92 0 0 0-10.9312 3.968l-0.4352 0.3584-0.4352 0.4096-0.2304 0.2048-0.6656 0.64-2.304 2.1504a2342.7584 2342.7584 0 0 0-32.6144 31.0528c-19.072 18.5856-41.984 41.856-58.1376 61.312l-0.7936 0.7936-0.3584 0.4608c-17.0496 22.912-19.072 53.6576-6.4 79.0016a75.0592 75.0592 0 0 0 67.328 41.3952h0.512l7.1168-0.3584a73.2672 73.2672 0 0 0 38.1952-15.3856 71.6288 71.6288 0 0 0 45.696 16.2304h0.4864l5.2224-0.1792z m-97.6896-44.7488c-12.2112 0-22.6816-6.4256-27.904-16.896a31.488 31.488 0 0 1 2.5088-32.3328c19.5584-23.7568 51.5584-54.5792 71.8592-73.9072 20.1216 19.2512 51.8656 50.0736 72.8064 73.9328 6.656 9.856 7.3216 22.1696 2.1248 32.2048l-0.0512 0.1024a31.104 31.104 0 0 1-27.9296 16.896c-6.9888 0-13.5424-2.3296-18.432-6.272l-1.9968-1.792a36.352 36.352 0 0 0-26.0608-10.88c-9.7792 0-19.3792 4.224-26.0096 10.8544a28.544 28.544 0 0 1-17.1776 7.936l-2.7648 0.1536h-0.9728z"  horiz-adv-x="1024" />
      
      <glyph glyph-name="EQceshi" unicode="&#59168;" d="M0 896m256 0l512 0q256 0 256-256l0-512q0-256-256-256l-512 0q-256 0-256 256l0 512q0 256 256 256ZM501.6064 308.224v164.48c0 17.664 7.5008 35.6608 22.5024 54.016 19.968 23.9872 45.312 36.1472 75.9808 36.48v-70.5024c-13.6448-0.3328-22.656-7.9872-26.9824-22.9888a21.248 21.248 0 0 1-1.024-5.0176v-156.4928c0-13.6704 7.5264-22.9888 22.528-28.0064a21.1968 21.1968 0 0 1 4.992-0.9984v-70.9888c-18.9952 0-38.016 6.8352-57.0112 20.48-26.9824 20.0192-40.6528 46.5152-40.9856 79.5136z m125.4912-100.0192v70.9888c5.3248 0 11.3408 2.816 17.9968 8.4992 6.3488 5.6832 9.6768 12.5184 9.984 20.5056v156.4928c0 6.016-2.816 12.3392-8.4736 18.9952a27.4944 27.4944 0 0 1-19.5072 9.0112V563.2c33.664 0 60.672-14.4896 80.9984-43.52 11.6736-16.64 17.5104-32.3072 17.5104-46.976v-164.5056c-0.3328-30.336-11.8528-54.9888-34.5088-73.984l27.4944-39.5264-55.9872-37.4784-35.5072 50.9952zM281.6 210.688V560.6912h182.016v-69.9904h-111.5136v-70.9888h64.512v-70.5024h-64.512v-68.0192h111.488v-70.5024H281.6z"  horiz-adv-x="1024" />
      
      <glyph glyph-name="renjiguanxiceshi" unicode="&#59169;" d="M0 896m256 0l512 0q256 0 256-256l0-512q0-256-256-256l-512 0q-256 0-256 256l0 512q0 256 256 256ZM688 544m-64 0a64 64 0 1 1 128 0 64 64 0 1 1-128 0ZM624 320a64 64 0 0 0 128 0v-160h-128V320zM688.64 424.6528c56.96 0 103.3472-47.1808 103.3728-104.0128V179.2a59.3408 59.3408 0 0 0-59.2128-59.2128h-88.32A59.3664 59.3664 0 0 0 585.2672 179.2v53.0176l-33.6896-33.7152-0.6656-0.6144a26.3936 26.3936 0 0 0-36.096-1.92l-2.048 1.92-41.4208 41.3952V179.2a59.3408 59.3408 0 0 0-59.1872-59.2128h-88.96A59.3408 59.3408 0 0 0 263.9872 179.2v141.44a104.2944 104.2944 0 0 0 104.0128 104.0128 103.6032 103.6032 0 0 0 103.3472-103.3728v-4.9664l60.4416-59.904 53.504 53.4784v11.392a103.6288 103.6288 0 0 0 103.3472 103.3728z m-321.28-55.04c-26.9568 0-48.9472-22.016-48.9472-48.9728V179.2c0-2.6112 2.176-4.8128 4.7872-4.8128H412.16a4.7872 4.7872 0 0 1 4.1728 2.6112v143.6416c0 26.9568-22.0416 48.9728-48.9728 48.9728z m320.64 0c-26.9312 0-48.9472-22.016-48.9472-48.9728V179.2c0-2.6112 2.176-4.8128 4.7872-4.8128h88.96c1.792 0 3.328 1.0752 4.1472 2.5856v143.6672c0 26.9568-22.016 48.9728-48.9472 48.9728zM367.36 647.9872c57.6256 0 103.3728-47.232 103.3728-104.0128a103.6032 103.6032 0 0 0-103.3728-103.3472c-56.9856 0-103.3472 47.1808-103.3472 103.9872a103.6032 103.6032 0 0 0 103.3472 103.3472z m321.28 0c56.9856 0 103.3728-47.1808 103.3728-104.0128a103.5776 103.5776 0 0 0-103.3728-103.3472c-57.6256 0-103.3728 47.2064-103.3728 103.9872A103.6032 103.6032 0 0 0 688.64 647.9872z m-321.28-54.4256a48.6656 48.6656 0 0 1-48.9472-48.9472c0-27.52 21.9392-48.9472 48.9472-48.9728 26.9312 0 48.9728 22.0416 48.9728 48.9728 0 26.9568-22.0416 48.9472-48.9728 48.9472z m321.28 0a48.6912 48.6912 0 0 1-48.9728-48.9472c0-26.9312 22.0416-48.9728 48.9728-48.9728 26.9568 0 48.9728 22.0416 48.9728 48.9728 0 26.9568-22.016 48.9472-48.9728 48.9472z"  horiz-adv-x="1024" />
      
      <glyph glyph-name="zhiyediyitian" unicode="&#59170;" d="M0 896m256 0l512 0q256 0 256-256l0-512q0-256-256-256l-512 0q-256 0-256 256l0 512q0 256 256 256ZM547.1488 499.9936c11.52 0 22.016-7.68 24.832-19.4048l63.0016-234.0096a25.088 25.088 0 0 0-6.3744-24.576h0.0256l-98.5856-107.5456c-4.1216-6.5024-11.8528-8.448-17.9968-8.448-7.3728 0-13.9776 2.56-19.1744 7.7312l-0.256 0.256-98.9696 108.0064h0.0256c-6.7584 6.9888-7.6032 16.128-6.528 23.6288l0.0768 0.4608 0.1024 0.4864 63.0016 233.984a25.344 25.344 0 0 0 24.832 19.456h72.0128z m-105.4464-253.312L512 170.8032l70.4 76.7744-53.9648 200.4224h-31.872l-54.8608-201.3184z m151.3472 415.3088c8.8576 0 16.8192-3.9168 21.9648-11.648h-0.0512c4.864-6.4768 4.9664-14.336 3.584-20.9152l-0.7168-2.816-0.1024-0.4096-36.1472-90.368-0.0768-0.1792c-4.0448-9.472-14.336-15.6416-24.448-15.6416h-89.984c-10.24 0-20.5312 6.2976-24.5248 16.7424l-0.0256-0.0256-36.0192 89.984-0.128 0.4608a27.392 27.392 0 0 0 2.7136 24.064l0.2048 0.2816 0.2304 0.256c5.12 6.4256 12.8512 10.24 21.5296 10.24h161.9968z m-107.9552-89.984h54.784l14.5408 37.9904h-84.5312l15.2064-37.9904z"  horiz-adv-x="1024" />
      
      <glyph glyph-name="diyixingyuanli" unicode="&#59171;" d="M0 896m256 0l512 0q256 0 256-256l0-512q0-256-256-256l-512 0q-256 0-256 256l0 512q0 256 256 256ZM634.5984 491.7504a32 32 0 1 0 32-55.424 32 32 0 0 0-32 55.424zM544 224a32 32 0 1 0-64 0 32 32 0 0 0 64 0zM331.904 280.0128a48 48 0 0 0 72.32 60.8l75.5456 43.1616-75.5712 43.2128a47.9744 47.9744 0 1 0 16.3072 27.52l75.52-43.1872v87.2448A47.9744 47.9744 0 0 0 512 592a48 48 0 1 0 16-93.2096v-87.2448l75.52 43.1616a47.9744 47.9744 0 1 0 16.3328-27.5456L544.3072 384l75.52-43.2128a47.9488 47.9488 0 0 0 72.32-60.7744 48 48 0 0 0-88.6272 33.28l-75.52 43.136v-87.2192a47.9744 47.9744 0 0 0-16-93.184 47.9744 47.9744 0 0 0-16 93.1584V356.352l-75.4688-43.1104a47.9744 47.9744 0 0 0-88.6272-33.2288z m304.8448 176a16 16 0 1 1 27.7248 16.0256 16 16 0 0 1-27.7248-16.0256z m-0.0256-144a16 16 0 1 1 27.7248-16.0256 16 16 0 0 1-27.7248 16.0256z m-140.6976 231.9872a16 16 0 1 1 32 0 16 16 0 0 1-32 0z m0-320a16 16 0 1 1 32 0 16 16 0 0 1-32 0z m-136.448 248.0128a16 16 0 1 1 27.7504-16.0256 16 16 0 0 1-27.7248 16.0256z m0.0512-176a16 16 0 1 1 27.6992 16.0256 16 16 0 0 1-27.7248-16.0256zM576 384a64 64 0 1 0-128 0 64 64 0 0 0 128 0zM544 384A32 32 0 1 1 512 352v-32a64 64 0 1 0 0 128 64 64 0 0 0 0-128v32c17.664 0 32 14.336 32 32z"  horiz-adv-x="1024" />
      
      <glyph glyph-name="IQceshi" unicode="&#59172;" d="M0 896m256 0l512 0q256 0 256-256l0-512q0-256-256-256l-512 0q-256 0-256 256l0 512q0 256 256 256ZM464.3072 302.3104v164.48c0 17.664 7.5008 35.6864 22.5024 54.016 19.968 23.9872 45.312 36.1728 75.9808 36.5056v-70.5024c-13.6704-0.3328-22.656-8.0128-26.9824-23.0144a21.1456 21.1456 0 0 1-1.024-4.992v-156.4928c0-13.6704 7.5264-23.0144 22.528-28.0064a21.248 21.248 0 0 1 4.992-1.024v-70.9888c-18.9952 0-38.016 6.8352-57.0112 20.5056-26.9824 19.9936-40.6528 46.5152-40.9856 79.5136z m125.4912-100.0192v71.0144c5.3248 0 11.3408 2.816 17.9968 8.4992 6.3488 5.6576 9.6768 12.4928 9.984 20.48v156.5184c0 5.9904-2.816 12.3392-8.4736 18.9952a27.52 27.52 0 0 1-19.5072 9.0112V557.312c33.664 0 60.672-14.5152 80.9984-43.52 11.6736-16.64 17.5104-32.3328 17.5104-47.0016v-164.48c-0.3328-30.336-11.8528-55.0144-34.5088-74.0096l27.4944-39.5008-55.9872-37.504-35.5072 50.9952zM353.792 204.8V554.8032h70.5024V204.8H353.792z"  horiz-adv-x="1024" />
      
      <glyph glyph-name="jiesuobaogao" unicode="&#59173;" d="M0 896m256 0l512 0q256 0 256-256l0-512q0-256-256-256l-512 0q-256 0-256 256l0 512q0 256 256 256ZM320 608h224l128-128v-320H320v448zM642.944 143.616H347.5712c-24.448 0-44.3136 19.8656-44.3136 44.288V579.968c0 24.4224 19.8656 44.3136 44.288 44.3136l189.5424 0.1024c17.664 0 39.1424-9.3696 51.1488-22.272l79.0016-84.7872c11.5968-12.4672 20.0192-33.8432 20.0192-50.8928v-150.3744a24.6272 24.6272 0 0 0-49.2288 0V466.432c0 4.608-3.712 13.9776-6.8096 17.3312L552.192 568.576c-2.7392 2.944-11.0592 6.5792-15.104 6.5792l-184.6016-0.1024v-382.208h285.5424v44.4416a24.6272 24.6272 0 0 0 49.2288 0v-49.3824c0-24.4224-19.8912-44.288-44.3136-44.288zM463.3856 263.0656a24.576 24.576 0 0 0-17.408 7.1936l-45.1328 45.1584a24.6272 24.6272 0 0 0 34.816 34.816l27.7248-27.7504 93.8752 93.8752a24.6272 24.6272 0 0 0 34.816-34.816l-111.2832-111.2832a24.5248 24.5248 0 0 0-17.408-7.1936z"  horiz-adv-x="1024" />
      
      <glyph glyph-name="a-Frame1000003769" unicode="&#59161;" d="M552.6016 677.3248a51.2 51.2 0 0 0 72.3968 0l256-256a51.2 51.2 0 0 0 0-72.3968l-256-256a51.2 51.2 0 1 0-72.3968 72.3968l219.8016 219.8016-219.8016 219.8016a51.2 51.2 0 0 0 0 72.3968zM819.2 435.2a51.2 51.2 0 1 0 0-102.4H230.4a51.2 51.2 0 1 0 0 102.4H819.2z"  horiz-adv-x="1024" />
      
      <glyph glyph-name="a-Frame1000004143" unicode="&#59162;" d="M1322.816 896H127.616C56.576 896 0 837.952 0 768.384v-768.768C0-71.424 58.048-128 127.616-128H1322.88c71.04 0 127.616 57.984 127.616 127.616V768.384A128.768 128.768 0 0 1 1322.816 896zM127.616 810.432H1322.88c23.168 0 42.048-18.88 42.048-42.048v-150.848H85.568V768.384c0 23.168 18.88 42.048 42.048 42.048zM1322.88-42.432H127.616a42.112 42.112 0 0 0-42.048 42.048V481.152h1279.296v-481.536a42.112 42.112 0 0 0-42.048-42.048zM222.016 167.872h733.888v-68.16H222.08v68.16z m889.088-33.344l-23.232 34.752h13.056l17.408-27.52 17.408 27.52h11.648l-23.232-34.752 23.232-34.816h-13.056l-17.408 26.112-17.408-26.112h-11.584l23.168 34.816z m63.808 0l-23.168 34.752h13.056l17.408-27.52 17.344 27.52h11.648l-21.76-34.752 23.232-34.816h-13.056l-17.408 26.112-17.408-26.112h-11.648l21.76 34.816z m65.28 0l-23.232 34.752h13.056l17.408-27.52 17.408 27.52h11.648l-23.232-34.752 23.232-34.816h-13.056l-17.408 26.112-17.408-26.112h-11.584l23.168 34.816zM1186.56 14.144c-101.568 0-181.312 52.224-181.312 120.384 0 68.224 79.744 120.384 181.312 120.384 101.504 0 181.312-52.224 181.312-120.32 0-68.224-79.808-120.448-181.312-120.448z m0 201.6c-76.864 0-142.144-37.696-142.144-81.216 0-43.52 65.28-81.216 142.08-81.216 76.928 0 142.208 37.76 142.208 81.28s-65.28 81.152-142.144 81.152z"  horiz-adv-x="1472" />
      
      <glyph glyph-name="a-dengpao1" unicode="&#59163;" d="M640 55.466667a34.133333 34.133333 0 1 0 0-68.266667H384a34.133333 34.133333 0 1 0 0 68.266667h256zM597.333333-51.2a34.133333 34.133333 0 1 0 0-68.266667h-170.666666a34.133333 34.133333 0 1 0 0 68.266667h170.666666zM776.533333 554.666667a264.533333 264.533333 0 1 1-377.856-239.104 34.133333 34.133333 0 0 0 19.456-30.805334V170.666667c0-4.693333 3.84-8.533333 8.533334-8.533334h170.666666a8.533333 8.533333 0 0 1 8.533334 8.533334v114.090666a34.133333 34.133333 0 0 0 19.456 30.848A264.533333 264.533333 0 0 1 776.533333 554.666667z m68.266667 0c0-125.013333-68.906667-233.813333-170.666667-290.688V170.666667a76.8 76.8 0 0 0-76.8-76.8h-170.666666A76.8 76.8 0 0 0 349.866667 170.666667v93.354666A332.8 332.8 0 1 0 844.8 554.666667zM506.026667 660.48a34.133333 34.133333 0 0 0 54.613333-40.96l-46.250667-61.653333 64.426667-64.426667a34.133333 34.133333 0 0 0 3.157333-44.586667l-64-85.333333a34.133333 34.133333 0 0 0-54.613333 40.96l46.208 61.696-64.341333 64.384a34.133333 34.133333 0 0 0-3.2 44.586667l64 85.333333z"  horiz-adv-x="1024" />
      
      <glyph glyph-name="a-Frame1000004176" unicode="&#59164;" d="M808.0384 770.56a64 64 0 0 0 90.5216-90.4704L602.4704 384l296.0896-296.1408 4.4032-4.8128a64 64 0 0 0-90.0096-90.112l-4.864 4.4544L512 293.5296 215.9104-2.56l-4.864-4.4032a64 64 0 0 0-90.0096 90.0608l4.4032 4.8128 296.0384 296.1408L125.44 680.0896A64 64 0 1 0 215.9104 770.56L512 474.5216l296.0384 296.0384z"  horiz-adv-x="1024" />
      
      <glyph glyph-name="AI" unicode="&#59134;" d="M411.062857 730.989714C481.499429 848.018286 654.262857 837.632 710.217143 713.142857l305.298286-679.862857a107.739429 107.739429 0 0 0-98.304-151.917714h-18.724572c-44.105143 0-79.286857 34.816-101.229714 73.142857L622.518857 241.810286C571.757714 320.658286 476.013714 348.891429 408.429714 309.394286c-67.584-39.424-90.112-140.8-39.497143-219.648 55.588571-91.428571-10.24-208.457143-117.174857-208.457143h-54.564571c-130.486857 0-211.090286 142.482286-143.872 254.317714l357.814857 595.382857z m813.421714-229.888c77.824 0 140.873143-63.122286 140.873143-140.873143v-338.066285a140.8 140.8 0 0 0-281.746285 0V360.228571c0 77.750857 63.122286 140.873143 140.873142 140.873143z m0 338.066286c79.798857 0 140.873143-61.074286 140.873143-140.873143V557.348571H1224.411429a138.386286 138.386286 0 0 0-140.873143 140.873143c0 79.725714 61.074286 140.873143 140.873143 140.873143z"  horiz-adv-x="1389" />
      
      <glyph glyph-name="chenggong" unicode="&#59159;" d="M512 896a512 512 0 1 1 512-512 512 512 0 0 1-512 512z m283.794286-365.714286a41.691429 41.691429 0 0 0-9.508572-15.36L457.142857 186.514286a48.274286 48.274286 0 0 0-33.645714-13.897143 52.662857 52.662857 0 0 0-32.914286 13.897143L259.657143 318.902857a31.451429 31.451429 0 0 0-10.971429 14.628572 73.142857 73.142857 0 0 0-4.388571 18.285714 54.125714 54.125714 0 0 0 3.657143 18.285714 51.2 51.2 0 0 0 10.24 13.897143 56.32 56.32 0 0 0 15.36 10.24A53.394286 53.394286 0 0 0 292.571429 398.628571a38.765714 38.765714 0 0 0 18.285714 0 58.514286 58.514286 0 0 0 14.628571-14.628571l98.011429-98.742857 296.96 292.571428a48.274286 48.274286 0 0 0 14.628571 10.24 51.2 51.2 0 0 0 18.285715 0 46.811429 46.811429 0 0 0 17.554285 0 43.885714 43.885714 0 0 0 15.36-10.24 62.902857 62.902857 0 0 0 9.508572-14.628571 38.765714 38.765714 0 0 0 4.388571-17.554286 37.302857 37.302857 0 0 0-4.388571-15.36z"  horiz-adv-x="1024" />
      
      <glyph glyph-name="a-touxiang1" unicode="&#59158;" d="M0 384.00032c0-282.783823 229.215857-511.99968 511.99968-511.99968s511.99968 229.215857 511.99968 511.99968S794.783503 896 511.99968 896 0 666.784143 0 384.00032zM177.343889-3.519438a304.63981 304.63981 0 0 0 215.039866 88.863945h230.783856a304.60781 304.60781 0 0 0 218.879863-92.799942A509.951681 509.951681 0 0 0 511.99968-127.99936a510.079681 510.079681 0 0 0-334.655791 124.479922zM627.263608 85.312507a119.455925 119.455925 0 1 0-238.975851 0h238.975851zM456.607715 256.0004h102.399936c18.847988 0 34.111979-15.26399 34.111978-34.143979v-136.511914a85.343947 85.343947 0 0 0-170.655893 0v136.511914c0 18.879988 15.23199 34.143979 34.143979 34.143979zM697.951564 351.136341l-1.439999-16.63999a188.223882 188.223882 0 0 0-375.071766 0l-1.343999 15.55199a42.655973 42.655973 0 1 0-7.167996 85.055947l-1.919998 23.551985a198.719876 198.719876 0 0 0 197.983876 215.487866h197.663876a17.023989 17.023989 0 0 0 16.99199-18.527989l-18.623989-220.511862a42.623973 42.623973 0 1 0-7.135995-83.967947h0.064zM443.743723 315.744363h136.511914a68.255957 68.255957 0 0 0-136.511914 0z"  horiz-adv-x="1024" />
      
      <glyph glyph-name="a-dengdai1" unicode="&#59146;" d="M512 896a512 512 0 1 1 0-1024A512 512 0 0 1 512 896z m256-620.032a19.968 19.968 0 0 0-19.968-19.968H403.968a19.894857 19.894857 0 0 0-5.851429 0.877714l-0.365714 0.146286a19.968 19.968 0 0 0-13.750857 19.017143V619.958857c0 10.971429 8.923429 19.968 19.968 19.968h88.064c10.971429 0 19.968-8.923429 19.968-19.968V384h236.032c10.971429 0 19.968-8.923429 19.968-19.968v-88.064z"  horiz-adv-x="1024" />
      
      <glyph glyph-name="a-dengdai2" unicode="&#59147;" d="M512 896a512 512 0 1 1 0-1024A512 512 0 0 1 512 896z m256-620.032a19.968 19.968 0 0 0-19.968-19.968H403.968a19.894857 19.894857 0 0 0-5.851429 0.877714l-0.365714 0.146286a19.968 19.968 0 0 0-13.750857 19.017143V619.958857c0 10.971429 8.923429 19.968 19.968 19.968h88.064c10.971429 0 19.968-8.923429 19.968-19.968V384h236.032c10.971429 0 19.968-8.923429 19.968-19.968v-88.064z"  horiz-adv-x="1024" />
      
      <glyph glyph-name="gengduo" unicode="&#59148;" d="M85.312 688a48 48 0 0 0 48 48h800a48 48 0 0 0 0-96h-800a48 48 0 0 0-48 48z m0-288a48 48 0 0 0 48 48h800a48 48 0 0 0 0-96h-800a48 48 0 0 0-48 48z m48-272a48 48 0 0 1 0-96h800a48 48 0 0 1 0 96h-800z"  horiz-adv-x="1024" />
      
      <glyph glyph-name="a-Frame1000003795" unicode="&#59128;" d="M741.1968 311.9872c-30.3872 0-58.112 4.5568-83.2 13.6192-25.0624 9.6-46.3872 22.656-64 39.1936a184.832 184.832 0 0 0-41.6 61.5936c-9.6 24.0128-14.3872 50.688-14.3872 80 0 30.4128 5.3248 62.1312 16 95.2064 11.1872 33.0752 27.1872 66.4064 48 99.9936a694.8096 694.8096 0 0 0 75.1872 99.2A872.3456 872.3456 0 0 0 778.8032 896l92.0064-72.0128a1317.0432 1317.0432 0 0 1-48-51.968 778.88 778.88 0 0 1-38.4-49.6128 641.3312 641.3312 0 0 1-32.8192-51.2 542.2592 542.2592 0 0 1-26.368-56.0128l217.6-108.8c0-28.8-5.632-55.1936-16.8192-79.2064a188.8256 188.8256 0 0 0-43.2128-61.5936 197.0944 197.0944 0 0 0-64-39.9872 222.0544 222.0544 0 0 0-77.568-13.6192z m-471.1936 0c-30.4128 0-58.1376 4.5568-83.2 13.6192-25.088 9.6-46.4128 22.656-64 39.1936a184.8064 184.8064 0 0 0-41.6 61.5936c-9.6 24.0128-14.4128 50.688-14.4128 80 0 30.4128 5.3504 62.1312 16 95.2064 11.2128 33.0752 27.2128 66.4064 48 99.9936a694.7328 694.7328 0 0 0 75.2128 99.2A872.32 872.32 0 0 0 307.6096 896l91.9808-72.0128a1317.0432 1317.0432 0 0 1-48-51.968 777.216 777.216 0 0 1-38.4-49.6128 641.3568 641.3568 0 0 1-32.768-51.2 542.2592 542.2592 0 0 1-26.4192-56.0128l217.6-108.8c0-28.8-5.6064-55.1936-16.7936-79.2064a188.7488 188.7488 0 0 0-43.2128-61.5936 197.0432 197.0432 0 0 0-64-39.9872 222.0288 222.0288 0 0 0-77.5936-13.6192z"  horiz-adv-x="1024" />
      
      <glyph glyph-name="a-Property1you" unicode="&#59149;" d="M381.44 770.56a64 64 0 0 0 90.453333 0l362.069334-361.984a64 64 0 0 0 0-90.453333L471.893333-44.032a64 64 0 1 0-90.453333 90.453333l316.757333 316.842667L381.44 680.106667a64 64 0 0 0 0 90.453333z"  horiz-adv-x="1024" />
      
      <glyph glyph-name="baogao" unicode="&#59150;" d="M251.904 726.106353v-461.251765H98.153412v-163.282823c0-64.692706 52.931765-127.141647 117.609412-127.141647h688.880941a54.392471 54.392471 0 0 1 54.407529 54.39247V671.698824a54.392471 54.392471 0 0 1-54.407529 54.407529H251.904zM328.884706 727.732706V101.797647c0 64.692706-50.959059 117.067294-115.365647 117.067294-64.421647 0-115.666824-53.217882-115.666824-117.62447V733.891765c0 32.768 11.203765 61.048471 34.43953 80.655059h-1.957647c21.564235 18.492235 52.103529 29.680941 82.627764 30.253176 63.292235-1.400471 115.937882-53.217882 115.937883-117.067294zM430.923294 563.2m25.6 0l332.8 0q25.6 0 25.6-25.6l0 0q0-25.6-25.6-25.6l-332.8 0q-25.6 0-25.6 25.6l0 0q0 25.6 25.6 25.6ZM430.923294 409.6m25.6 0l332.8 0q25.6 0 25.6-25.6l0 0q0-25.6-25.6-25.6l-332.8 0q-25.6 0-25.6 25.6l0 0q0 25.6 25.6 25.6ZM430.923294 256m25.6 0l332.8 0q25.6 0 25.6-25.6l0 0q0-25.6-25.6-25.6l-332.8 0q-25.6 0-25.6 25.6l0 0q0 25.6 25.6 25.6Z"  horiz-adv-x="1024" />
      
      <glyph glyph-name="a-Property1zuo" unicode="&#59151;" d="M642.56-43.946667a64 64 0 0 0-90.453333 0L190.037333 318.037333a64 64 0 0 0 0 90.538667L552.106667 770.645333a64 64 0 1 0 90.453333-90.453333L325.802667 363.264 642.56 46.592a64 64 0 0 0 0-90.538667z"  horiz-adv-x="1024" />
      
      <glyph glyph-name="a-Frame1000003796" unicode="&#59152;" d="M268.3904 455.9872c30.4128 0 58.1376-4.5312 83.2-13.568 25.088-9.6256 46.4128-22.6816 64-39.2192a184.832 184.832 0 0 0 41.6-61.5936c9.6-24.0128 14.4128-50.688 14.4128-80 0-30.4128-5.3504-62.1312-16-95.2064-11.2128-33.0752-27.2128-66.4064-48-99.9936a694.6304 694.6304 0 0 0-75.2128-99.2A872.32 872.32 0 0 0 230.8096-128l-92.0064 72.0128a1315.2256 1315.2256 0 0 1 48 51.968 777.728 777.728 0 0 1 38.4 49.6128c11.7248 16.5376 22.656 33.6128 32.7936 51.2 9.6 17.6128 18.4064 36.2752 26.3936 56.0128l-217.6 108.8c0 28.8 5.632 55.1936 16.8192 79.1808 10.6496 24.0128 25.0624 44.544 43.1872 61.6192a197.0688 197.0688 0 0 0 64 39.9872 222.0288 222.0288 0 0 0 77.5936 13.6192z m471.2192 0c30.3872 0 58.112-4.5312 83.2-13.568 25.0624-9.6256 46.3872-22.6816 64-39.2192a184.7808 184.7808 0 0 0 41.6-61.5936c9.6-24.0128 14.3872-50.688 14.3872-80 0-30.4128-5.3248-62.1312-16-95.2064-11.1872-33.0752-27.1872-66.4064-48-99.9936a694.4256 694.4256 0 0 0-75.1872-99.2A872.2688 872.2688 0 0 0 701.952-128l-91.9808 72.0128a1315.2256 1315.2256 0 0 1 48 51.968 776.9856 776.9856 0 0 1 38.4 49.6128c11.7504 16.5376 22.6816 33.6128 32.7936 51.2 9.6 17.6128 18.432 36.2752 26.4192 56.0128l-217.6 108.8c0 28.8 5.5808 55.1936 16.7936 79.1808 10.6496 24.0128 25.0624 44.544 43.1872 61.6192a197.0432 197.0432 0 0 0 64 39.9872 222.0288 222.0288 0 0 0 77.6192 13.6192z"  horiz-adv-x="1024" />
      
      <glyph glyph-name="a-Property1xia" unicode="&#59153;" d="M919.296 579.242667a64 64 0 0 0 0-90.538667L557.226667 126.634667a64 64 0 0 0-90.453334 0L104.704 488.704a64 64 0 1 0 90.453333 90.453333L512 262.485333l316.757333 316.842667a64 64 0 0 0 90.538667 0z"  horiz-adv-x="1024" />
      
      <glyph glyph-name="a-Property1shang" unicode="&#59154;" d="M104.704 147.370667a64 64 0 0 0 0 90.453333L466.773333 599.893333a64 64 0 0 0 90.453334 0l362.069333-361.984a64 64 0 1 0-90.453333-90.453333L512 464.042667 195.242667 147.370667a64 64 0 0 0-90.538667 0z"  horiz-adv-x="1024" />
      
      <glyph glyph-name="a-Property1Variant3" unicode="&#59127;" d="M429.7728 187.5968a102.4 102.4 0 0 1 164.4544 0l252.5184 340.1728A102.4 102.4 0 0 1 764.5184 691.2H259.4816a102.4 102.4 0 0 1-82.2272-163.4304l252.5184-340.1728z"  horiz-adv-x="1024" />
      
      <glyph glyph-name="a-Property1Default" unicode="&#59155;" d="M708.4032 471.04a102.4 102.4 0 0 0 0-164.5568L368.2304 53.9648A102.4 102.4 0 0 0 204.8 136.192V641.2288a102.4 102.4 0 0 0 163.4304 82.2272L708.4032 471.04z"  horiz-adv-x="1024" />
      
      <glyph glyph-name="a-Property1Variant4" unicode="&#59156;" d="M594.2272 580.4032a102.4 102.4 0 0 1-164.4544 0L177.2544 240.2304A102.4 102.4 0 0 1 259.4816 76.8h505.0368a102.4 102.4 0 0 1 82.2272 163.4304L594.2272 580.4032z"  horiz-adv-x="1024" />
      
      <glyph glyph-name="a-Property1Variant2" unicode="&#59157;" d="M315.5968 471.04a102.4 102.4 0 0 1 0-164.5568l340.1728-252.5184A102.4 102.4 0 0 1 819.2 136.192V641.2288a102.4 102.4 0 0 1-163.4304 82.2272L315.5968 471.04z"  horiz-adv-x="1024" />
      
      <glyph glyph-name="zhiyedaolu" unicode="&#59131;" d="M626.688 657.066667h-225.826133c-18.056533 0-36.113067 8.533333-42.9056 22.186666l-90.3168 170.666667c-4.5056 10.24-4.5056 22.186667 4.5056 32.426667 9.045333 8.533333 22.596267 13.653333 38.4 13.653333h406.493866c15.803733 0 29.354667-5.12 38.365867-15.36 9.045333-8.533333 9.045333-20.48 4.539733-32.426667l-90.350933-170.666666c-6.7584-11.946667-24.814933-20.48-42.9056-20.48z m-194.218667 68.266666h164.864l51.950934 102.4h-271.018667l54.237867-102.4z m81.3056-853.333333c-13.550933 0-24.814933 3.413333-33.860266 10.24l-248.4224 204.8c-11.264 8.533333-13.550933 20.48-11.264 32.426667l158.037333 443.733333c4.539733 15.36 22.596267 25.6 42.939733 25.6h180.667734c20.309333 0 38.365867-10.24 42.9056-25.6l158.037333-443.733333c4.539733-11.946667 0-23.893333-11.264-32.426667l-248.4224-204.8c-4.5056-6.826667-15.803733-10.24-29.354667-10.24z"  horiz-adv-x="1024" />
      
      <glyph glyph-name="zuixinbaogao" unicode="&#59132;" d="M871.3216 501.9648h-103.560533V777.6256A50.039467 50.039467 0 0 1 717.653333 827.733333H152.507733A50.107733 50.107733 0 0 1 102.4 777.6256v-763.221333a50.107733 50.107733 0 0 1 50.039467-50.0736h671.061333A98.133333 98.133333 0 0 1 921.6 62.464V451.857067a50.0736 50.0736 0 0 1-50.2784 50.107733z m-631.125333 137.216a29.559467 29.559467 0 0 0 29.559466 29.422933h75.776a29.5936 29.5936 0 0 0 29.457067-29.422933v-75.776a29.5936 29.5936 0 0 0-29.627733-29.627733H269.755733a29.5936 29.5936 0 0 0-29.525333 29.627733v75.776z m0-172.885333a11.8784 11.8784 0 0 0 11.844266 11.8784h316.177067a11.946667 11.946667 0 0 0 11.912533-11.8784v-23.4496a11.8784 11.8784 0 0 0-11.912533-11.810134H252.040533a11.776 11.776 0 0 0-11.810133 11.537067v23.722667zM580.266667 190.600533a11.8784 11.8784 0 0 0-11.8784-11.810133H252.142933a11.844267 11.844267 0 0 0-11.810133 11.810133v23.620267a11.844267 11.844267 0 0 0 11.810133 11.8784h316.6208a11.8784 11.8784 0 0 0 11.5712-12.151467l-0.1024-23.3472z m67.822933 125.952a11.8784 11.8784 0 0 0-11.912533-11.844266H252.040533a11.844267 11.844267 0 0 0-11.810133 11.844266v23.688534a11.8784 11.8784 0 0 0 11.810133 11.912533h384.238934a11.8784 11.8784 0 0 0 11.776-11.946667v-23.6544z m0 252.074667a11.8784 11.8784 0 0 0-11.912533-11.844267H458.410667a11.844267 11.844267 0 0 0-11.810134 11.844267v23.6544a11.8784 11.8784 0 0 0 11.810134 11.8784h177.7664a11.946667 11.946667 0 0 0 11.912533-11.8784v-23.6544zM863.573333 62.190933a45.8752 45.8752 0 0 0-45.738666-45.738666h-4.027734a45.909333 45.909333 0 0 0-45.9776 45.738666V430.3872a13.960533 13.960533 0 0 0 13.858134 13.824h68.027733a13.892267 13.892267 0 0 0 13.858133-13.824v-368.196267z"  horiz-adv-x="1024" />
      
      <glyph glyph-name="xinggetezheng" unicode="&#59130;" d="M453.154133 846.779733a121.2416 121.2416 0 0 0 117.213867 0l326.7584-182.135466A112.366933 112.366933 0 0 0 955.733333 566.135467v-363.861334c0-40.686933-22.528-78.336-58.606933-98.474666l-326.7584-182.5792a120.32 120.32 0 0 0-116.736 0l-326.7584 182.135466A112.366933 112.366933 0 0 0 68.266667 201.864533V565.725867c0 40.686933 22.528 78.336 58.606933 98.474666l326.314667 182.5792z m128.955734-605.115733c-20.616533-13.4144-44.987733-19.387733-68.949334-19.387733-19.524267 0-37.512533 4.096-55.5008 11.195733l-14.267733-32.426667c50.961067-22.7328 108.680533-18.670933 157.013333 9.659734l-18.295466 30.958933z m79.428266 114.449067a67.1744 67.1744 0 0 1-67.822933-67.4816c0-37.649067 30.72-67.447467 67.822933-67.447467a67.618133 67.618133 0 0 1 67.822934 67.447467c0 37.649067-30.72 67.4816-67.822934 67.4816z m-310.306133-5.597867l-56.593067-96.938667 15.701334-27.204266v0.750933H419.84l15.701333 26.453333-53.179733 96.938667h-31.095467z m310.272-30.958933c17.271467 0 31.505067-13.038933 31.1296-30.9248a31.4368 31.4368 0 0 0-31.095467-30.958934 31.470933 31.470933 0 0 0-31.095466 30.958934c0 16.759467 14.2336 30.9248 31.061333 30.9248z m-271.291733-57.378134h-48.366934l25.4976 43.2128 22.869334-43.2128z m7.099733 215.790934a169.813333 169.813333 0 0 1-52.087467-96.904534l35.2256-6.690133c4.5056 30.549333 19.490133 56.251733 40.8576 77.141333l-23.995733 26.453334z m205.0048-24.9856a144.008533 144.008533 0 0 0 41.984-73.045334l35.2256 7.099734a171.3152 171.3152 0 0 1-53.248 92.433066l-23.927467-26.487466zM479.4368 581.632c-21.367467 0-38.229333-17.169067-38.229333-38.024533v-64.853334c0-21.230933 17.237333-38.024533 38.229333-38.024533h66.321067c20.241067 0 37.102933 16.7936 38.229333 36.898133v65.979734c0 21.230933-17.237333 38.024533-38.229333 38.024533h-66.321067z m66.321067-35.0208c1.501867 0 2.628267-1.501867 2.628266-2.594133v-66.013867c0-1.501867-1.501867-2.594133-2.628266-2.594133h-66.321067c-1.501867 0-2.628267 1.467733-2.628267 2.594133v66.013867c0 1.467733 1.501867 2.594133 2.628267 2.594133h66.321067z"  horiz-adv-x="1024" />
      
      <glyph glyph-name="suo" unicode="&#59135;" d="M739.908267 520.533333h-37.9904V598.562133C701.917867 706.218667 616.8576 793.6 512 793.6S322.048 706.218667 322.048 598.562133V520.533333H284.091733c-41.984 0-75.9808-34.9184-75.9808-78.0288v-390.075733c0-43.1104 33.9968-78.0288 75.9808-78.0288h455.816534c41.984 0 75.9808 34.9184 75.9808 78.0288V442.504533c0 43.1104-33.9968 78.0288-75.9808 78.0288zM512 169.437867c-41.984 0-75.9808 34.9184-75.9808 78.0288 0 43.1104 33.9968 78.0288 75.9808 78.0288s75.9808-34.9184 75.9808-78.0288c0-43.1104-33.9968-78.0288-75.9808-78.0288zM629.76 520.533333h-235.52V598.562133c0 66.696533 52.804267 120.9344 117.76 120.9344 64.955733 0 117.76-54.237867 117.76-120.9344V520.533333z"  horiz-adv-x="1024" />
      
      <glyph glyph-name="a-zhifushibai1" unicode="&#59136;" d="M448.146286 368.932571L288.402286 209.261714l63.853714-63.926857L512 305.078857l159.744-159.744 63.853714 63.853714-159.744 159.744 159.744 159.744-63.853714 63.853715L512 432.859429 352.256 592.457143l-63.853714-63.853714 159.744-159.744zM512 896a512 512 0 1 0 0-1024A512 512 0 0 0 512 896z"  horiz-adv-x="1024" />
      
      <glyph glyph-name="guoqi" unicode="&#59129;" d="M512 896a512 512 0 1 0 0-1024.073143A512 512 0 0 0 512 896z m0-658.285714a48.786286 48.786286 0 1 1-2.925714-97.499429A48.786286 48.786286 0 0 1 512 237.714286z m7.68 390.070857h-15.286857a48.786286 48.786286 0 0 1-48.566857-53.101714l23.04-257.828572a33.353143 33.353143 0 0 1 66.340571 0l23.04 257.828572a48.786286 48.786286 0 0 1-48.566857 53.101714z"  horiz-adv-x="1024" />
      
      <glyph glyph-name="a-duoyuyan1" unicode="&#59137;" d="M886.198857 57.856a492.178286 492.178286 0 0 1 122.002286 325.705143c0 132.461714-51.565714 256.950857-145.261714 350.646857A492.470857 492.470857 0 0 1 518.436571 879.396571a46.08 46.08 0 0 1-13.604571 0 492.470857 492.470857 0 0 1-343.113143-145.188571A492.470857 492.470857 0 0 1 16.530286 390.217143a46.08 46.08 0 0 1 0-11.337143A492.544 492.544 0 0 1 161.645714 32.914286a492.617143 492.617143 0 0 1 350.646857-145.188572 492.617143 492.617143 0 0 1 370.395429 166.180572 22.454857 22.454857 0 0 1 3.437714 3.949714zM62.464 361.764571h208.384c1.462857-72.996571 10.24-141.385143 25.014857-202.313142-68.608-18.578286-112.054857-42.642286-134.582857-57.709715a448.073143 448.073143 0 0 0-98.742857 260.022857z m98.304 302.957715c22.308571-15.067429 65.828571-39.424 134.802286-58.075429a948.150857 948.150857 0 0 1-24.722286-199.387428H62.610286a448.146286 448.146286 0 0 0 98.157714 257.462857z m801.28-257.462857h-208.237714a947.931429 947.931429 0 0 1-24.722286 199.314285c68.827429 18.578286 112.493714 42.715429 135.094857 57.782857 57.051429-71.241143 92.891429-160.182857 97.865143-257.097142z m-253.805714 0H534.454857v173.348571a864.329143 864.329143 0 0 1 150.308572 15.652571c13.970286-57.929143 22.089143-122.148571 23.625142-189.001142zM534.454857 626.102857V830.902857c40.96-11.556571 80.896-54.710857 112.128-122.294857 9.801143-21.138286 18.505143-44.032 26.112-68.315429-38.912-7.533714-84.845714-12.946286-138.24-14.043428zM488.886857 830.390857v-204.214857a812.032 812.032 0 0 0-136.777143 14.262857c7.533714 24.137143 16.237714 47.030857 26.038857 68.096 30.939429 66.852571 70.290286 109.714286 110.738286 121.856z m0-249.709714v-173.348572H316.342857c1.536 66.852571 9.654857 130.998857 23.625143 188.928 42.057143-8.338286 91.428571-14.336 148.918857-15.579428z m-172.617143-218.916572h172.617143v-176.274285c-57.344-1.316571-106.642286-7.314286-148.699428-15.652572a902.582857 902.582857 0 0 0-23.844572 191.926857z m172.617143-221.769142v-203.264c-40.448 12.141714-79.798857 55.003429-110.738286 121.856a557.860571 557.860571 0 0 0-25.746285 67.291428 821.101714 821.101714 0 0 0 136.484571 14.116572z m45.494857-203.629715v203.629715c53.248-1.097143 99.035429-6.436571 137.947429-14.043429-7.533714-23.917714-16.091429-46.518857-25.819429-67.364571-31.232-67.584-71.168-110.665143-112.128-122.221715z m0 249.197715v176.274285h173.933715c-1.462857-67.949714-9.581714-133.046857-23.771429-191.707428a863.597714 863.597714 0 0 1-150.162286 15.36z m219.428572 176.274285h208.384a448.146286 448.146286 0 0 0-98.450286-259.657143c-22.747429 15.213714-66.267429 39.204571-134.802286 57.636572 14.628571 60.854857 23.405714 129.097143 24.868572 201.947428z m79.872 336.969143c-20.333714-12.873143-58.148571-32.621714-116.516572-48.347428-21.430857 70.070857-51.2 127.780571-86.747428 167.716571 78.262857-21.211429 148.041143-63.122286 203.264-119.369143zM394.24 818.176c-35.474286-39.862857-65.243429-97.499429-86.674286-167.424-58.221714 15.798857-95.963429 35.693714-116.150857 48.420571A450.633143 450.633143 0 0 0 394.24 818.176zM191.926857 67.437714c20.260571 12.8 57.856 32.475429 115.931429 48.128 21.357714-69.558857 51.053714-126.902857 86.308571-166.619428a450.633143 450.633143 0 0 0-202.24 118.491428z m438.491429-118.491428c35.328 39.789714 65.097143 97.133714 86.454857 166.765714 57.782857-15.579429 95.524571-35.108571 116.150857-48.054857a450.56 450.56 0 0 0-202.605714-118.710857z"  horiz-adv-x="1024" />
      
      <glyph glyph-name="xiangtongzhumingrenwu" unicode="&#59138;" d="M675.84 264.533333c-52.497067 0-77.892267-29.866667-163.84-29.866666-86.1184 0-111.2064 29.866667-163.84 29.866666-135.748267 0-245.76-112.298667-245.76-250.88v-17.92C102.4-53.76 141.687467-93.866667 190.1568-93.866667H833.877333C882.312533-93.866667 921.6-53.76 921.6-4.266667v17.92c0 138.581333-110.011733 250.88-245.76 250.88zM512 324.266667c129.297067 0 234.052267 106.973867 234.052267 238.933333V861.866667L629.077333 802.133333 512 861.866667l-117.0432-59.733334L277.947733 861.866667v-298.666667c0-131.959467 104.789333-238.933333 234.052267-238.933333zM336.452267 765.201067l58.504533-29.866667L512 795.067733l117.0432-59.733333 58.504533 29.866667v-112.401067H336.452267V765.201067z m0-172.1344h351.095466v-29.866667c0-98.816-78.7456-179.2-175.547733-179.2s-175.547733 80.384-175.547733 179.2v29.866667z"  horiz-adv-x="1024" />
      
      <glyph glyph-name="dingyue" unicode="&#59139;" d="M191.6928 780.629333c17.578667 15.291733 40.584533 22.6304 63.351467 22.528h234.9056c8.635733 0 17.2032 0.170667 25.873066-0.853333 26.453333-2.218667 51.473067-17.066667 67.2768-39.253333 11.946667 16.725333 28.706133 29.0816 47.854934 35.2256 13.4144 4.539733 27.613867 4.9152 41.472 4.778666 96.938667-0.068267 143.6672 0.136533 240.571733-0.068266a94.583467 94.583467 0 0 0 62.532267-23.3472c20.753067-17.681067 32.904533-44.919467 34.2016-72.567467v-580.949333c-1.024-28.16-13.312-55.842133-34.338134-73.728a94.549333 94.549333 0 0 0-62.464-23.210667c-101.1712-0.273067-152.234667 0.1024-253.371733-0.273067-23.313067 0.136533-45.533867-15.803733-53.4528-38.5024-3.9936-9.557333-1.979733-20.48-6.144-29.969066-5.0176-10.581333-19.694933-14.199467-28.501333-6.4512-6.656 4.983467-7.748267 13.994667-8.3968 21.8112a58.197333 58.197333 0 0 1-38.229334 50.005333c-11.776 4.164267-24.4736 3.310933-36.727466 3.413333-95.095467 0-139.912533-0.1024-234.973867 0.068267a94.0032 94.0032 0 0 0-62.395733 23.2448c-21.0944 17.954133-33.3824 45.533867-34.338134 73.728V706.901333c1.262933 28.228267 13.892267 55.876267 35.293867 73.693867z m288.904533-213.265066a22.8352 22.8352 0 0 1-22.357333 23.278933H299.793067a22.8352 22.8352 0 0 1-22.357334-23.278933c0-12.834133 10.001067-23.210667 22.357334-23.210667h158.446933a22.8352 22.8352 0 0 1 22.357333 23.210667z m0-135.611734a22.8352 22.8352 0 0 1-22.357333 23.2448H299.793067a22.8352 22.8352 0 0 1-22.357334-23.2448c0-12.834133 10.001067-23.2448 22.357334-23.2448h158.446933a22.801067 22.801067 0 0 1 22.357333 23.210667z m0-153.122133a22.8352 22.8352 0 0 1-22.357333 23.2448H299.793067a22.8352 22.8352 0 0 1-22.357334-23.2448c0-12.868267 10.001067-23.278933 22.357334-23.278933h158.446933a22.8352 22.8352 0 0 1 22.357333 23.278933z m408.029867 288.768a22.8352 22.8352 0 0 1-22.357333 23.2448h-158.4128a21.981867 21.981867 0 0 1-15.872-6.826667 23.722667 23.722667 0 0 1-6.5536-16.418133c0-6.178133 2.389333-12.0832 6.5536-16.452267 4.232533-4.369067 9.898667-6.826667 15.872-6.826666h158.4128a22.8352 22.8352 0 0 1 22.357333 23.2448z m0-135.645867a22.8352 22.8352 0 0 1-22.357333 23.2448h-158.4128a21.981867 21.981867 0 0 1-15.837867-6.826666 23.722667 23.722667 0 0 1-6.5536-16.418134c0-6.144 2.3552-12.0832 6.5536-16.452266s9.898667-6.826667 15.837867-6.826667h158.4128a22.801067 22.801067 0 0 1 22.357333 23.278933z m0-153.122133a22.8352 22.8352 0 0 1-22.357333 23.2448h-158.4128a21.981867 21.981867 0 0 1-15.872-6.826667 23.722667 23.722667 0 0 1-6.5536-16.418133c0-6.178133 2.389333-12.117333 6.5536-16.452267 4.232533-4.369067 9.898667-6.826667 15.872-6.826666h158.4128a22.8352 22.8352 0 0 1 22.357333 23.278933z"  horiz-adv-x="1126" />
      
      <glyph glyph-name="manyidu" unicode="&#59140;" d="M370.341647 734.418824c16.263529 31.412706 59.316706 36.080941 81.935059 8.884705l122.578823-147.395764a49.453176 49.453176 0 0 1 29.967059-17.167059l189.138824-31.247059c34.906353-5.767529 52.645647-45.266824 33.761882-75.188706l-102.309647-162.123294a49.453176 49.453176 0 0 1-7.077647-33.807059l28.747294-189.530353c5.300706-34.981647-26.774588-64.060235-61.078588-55.341176l-185.795765 47.194353a49.453176 49.453176 0 0 1-34.334117-3.71953l-171.369412-85.895529c-31.638588-15.856941-69.210353 5.677176-71.529412 40.975059L210.477176 221.364706a49.453176 49.453176 0 0 1-14.155294 31.503059l-134.640941 136.448c-24.847059 25.193412-15.992471 67.568941 16.865883 80.670117l178.055529 71.032471a49.468235 49.468235 0 0 1 25.6 23.190588l88.154353 170.224941zM755.139765 691.621647c25.404235 18.145882 61.093647 4.517647 67.945411-25.931294l28.175059-125.289412c2.304-10.24 8.207059-19.275294 16.64-25.524706l103.30353-76.288c25.103059-18.552471 23.175529-56.711529-3.674353-72.628706l-110.441412-65.505882a43.640471 43.640471 0 0 1-19.124706-23.732706l-40.658823-121.795765c-9.878588-29.620706-46.757647-39.574588-70.204236-18.974117L630.663529 220.762353a43.640471 43.640471 0 0 1-28.461176 10.872471l-128.406588 1.008941c-31.216941 0.256-52.103529 32.256-39.725177 60.912941l50.838588 117.910588c4.156235 9.637647 4.698353 20.449882 1.536 30.448941l-38.701176 122.428236c-9.426824 29.771294 14.561882 59.497412 45.643294 56.606117l127.849412-11.926588a43.640471 43.640471 0 0 1 29.424941 7.951059l104.478118 74.661647z"  horiz-adv-x="1024" />
      
      <glyph glyph-name="gerenchengchang" unicode="&#59141;" d="M811.6224 793.6a117.0432 117.0432 0 0 0 117.009067-117.0432v-373.896533A213.674667 213.674667 0 1 1 662.664533-25.6H226.5088a117.0432 117.0432 0 0 0-117.009067 117.0432V676.522667A117.0432 117.0432 0 0 0 226.474667 793.6h585.147733zM306.517333 288.426667c-18.602667-0.034133-34.577067-15.9744-34.577066-34.6112 0-18.568533 15.9744-34.542933 34.577066-34.542934h178.141867c15.940267 0 31.880533 15.940267 34.542933 34.542934 0 18.6368-13.312 34.577067-34.542933 34.577066H306.517333z m295.1168 324.334933a29.4912 29.4912 0 0 1-29.218133-29.218133c0-15.9744 13.312-29.2864 29.252267-29.2864l47.854933 2.6624-106.359467-116.9408-87.722666 93.013333a33.723733 33.723733 0 0 1-47.889067 0l-119.637333-114.2784a33.723733 33.723733 0 0 1 0-47.889067c5.3248-5.290667 15.9744-10.615467 23.927466-10.615466 5.3248 0 13.312 0 21.265067 7.953066l95.709867 93.0816 95.744-95.744c5.290667-2.6624 15.940267-7.953067 23.893333-7.953066 7.9872 0 15.9744 2.6624 23.9616 10.615466l127.5904 140.9024v-47.8208c0-15.9744 13.312-29.2864 29.2864-29.2864 15.940267 0 29.218133 13.312 29.218133 29.2864l-2.6624 124.928a30.173867 30.173867 0 0 1-7.953066 21.2992 30.208 30.208 0 0 1-21.265067 7.953067l-124.996267-2.6624zM770.628267 337.032533c98.065067 0 175.445333-80.008533 178.039466-178.0736a178.414933 178.414933 0 0 0-178.039466-178.0736 178.414933 178.414933 0 0 0-178.0736 178.0736 178.414933 178.414933 0 0 0 178.0736 178.0736z m0-61.917866a62.805333 62.805333 0 0 1-61.952-61.952c0-23.210667 15.4624-43.861333 33.553066-54.203734-38.741333-10.308267-67.106133-46.421333-72.2944-85.162666 0-7.748267 5.188267-10.308267 10.3424-12.9024h178.0736c5.154133 0 10.3424 5.154133 10.3424 12.9024a93.764267 93.764267 0 0 1-69.700266 85.162666c20.650667 10.3424 33.553067 30.993067 33.553066 54.203734a62.805333 62.805333 0 0 1-61.917866 61.952z"  horiz-adv-x="1024" />
      
      <glyph glyph-name="changjianwenti" unicode="&#59142;" d="M136.6016 390.178133C139.8784 611.498667 321.092267 791.586133 542.446933 793.6A409.6 409.6 0 0 0 955.733333 380.689067C953.992533 157.0816 770.389333-25.2928 546.747733-25.6a407.995733 407.995733 0 0 0-175.547733 39.185067H237.4656a30.242133 30.242133 0 0 0-30.242133 30.208V153.941333a407.790933 407.790933 0 0 0-70.656 236.2368z m500.224 130.833067c-21.504 18.2272-49.902933 26.8288-84.7872 26.8288-39.697067 0-70.826667-10.6496-93.9008-31.914667-23.620267-21.265067-34.884267-50.619733-34.884267-88.064h61.166934c0 21.230933 4.3008 37.956267 13.4144 49.595734 10.205867 14.165333 26.8288 20.753067 50.449066 20.753066 18.2272 0 32.733867-4.539733 42.9056-14.165333 9.659733-9.6256 15.018667-22.801067 15.018667-39.492267 0-12.663467-4.778667-24.814933-14.472533-35.976533l-6.417067-7.0656c-34.884267-29.354667-55.842133-50.653867-62.805333-64.3072-7.509333-13.687467-10.717867-30.378667-10.717867-49.629867v-7.099733h61.713067v7.099733a68.266667 68.266667 0 0 0 8.021333 32.904534 79.530667 79.530667 0 0 0 21.504 25.326933c25.736533 21.265067 41.301333 34.9184 46.114133 40.004267 12.868267 16.1792 19.8656 36.9664 19.8656 62.2592 0 30.890667-10.752 55.1936-32.187733 72.942933z m-64.4096-275.968a44.1344 44.1344 0 0 1-30.037333 10.615467c-11.810133 0-21.469867-3.549867-29.525334-10.615467-8.055467-7.099733-11.810133-16.213333-11.810133-27.3408 0-11.1616 3.754667-20.2752 11.810133-27.374933 8.055467-7.0656 17.7152-11.127467 29.525334-11.127467s21.469867 3.549867 29.4912 10.615467c8.055467 7.099733 12.356267 16.725333 12.356266 27.886933 0 11.127467-4.3008 20.241067-11.810133 27.306667z"  horiz-adv-x="1058" />
      
      <glyph glyph-name="renjichengchang" unicode="&#59143;" d="M853.674667 554.666667C947.370667 554.666667 1024 631.5008 1024 725.333333s-76.663467 170.666667-170.325333 170.666667c-93.627733 0-170.2912-76.834133-170.2912-170.666667 0-93.866667 75.502933-170.666667 170.325333-170.666666zM170.325333 554.666667c93.627733 0 170.2912 76.834133 170.2912 170.666666s-76.663467 170.666667-170.325333 170.666667C76.663467 896 0 819.165867 0 725.333333c0-93.866667 76.663467-170.666667 170.325333-170.666666z m683.349334-85.333334c-93.627733 0-170.2912-76.834133-170.2912-170.666666v-68.334934l-171.3152-99.157333-170.2912 99.157333V298.666667c0 93.866667-76.663467 170.666667-170.325334 170.666666-93.627733 0-170.2912-76.834133-170.2912-170.666666v-384c0-23.483733 19.114667-42.666667 42.564267-42.666667h255.488c23.4496 0 42.564267 19.182933 42.564267 42.666667v216.507733l146.8416-85.333333c1.024 0 1.024-1.024 2.184533-1.024 12.8-7.509333 28.7744-8.465067 42.564267 0l150.016 87.517866v-217.668266c0-23.483733 19.114667-42.666667 42.564266-42.666667h255.488C1004.885333-128 1024-108.8512 1024-85.333333V298.666667c0 93.832533-76.663467 170.666667-170.325333 170.666666z"  horiz-adv-x="1024" />
      
      <glyph glyph-name="manyiyonghu" unicode="&#59144;" d="M116.344471 802.876235m77.583058 0l636.099765 0q77.583059 0 77.583059-77.583059l0-765.289411q0-77.583059-77.583059-77.583059l-636.099765 0q-77.583059 0-77.583058 77.583059l0 765.289411q0 77.583059 77.583058 77.583059ZM232.719059 550.866824m46.019765 0l466.507294 0q46.019765 0 46.019764-46.019765l0 0q0-46.019765-46.019764-46.019765l-466.507294 0q-46.019765 0-46.019765 46.019765l0 0q0 46.019765 46.019765 46.019765ZM232.719059 366.757647m46.019765 0l466.507294 0q46.019765 0 46.019764-46.019765l0 0q0-46.019765-46.019764-46.019764l-466.507294 0q-46.019765 0-46.019765 46.019764l0 0q0 46.019765 46.019765 46.019765ZM232.719059 182.633412m46.019765 0l210.507294 0q46.019765 0 46.019764-46.019765l0 0q0-46.019765-46.019764-46.019765l-210.507294 0q-46.019765 0-46.019765 46.019765l0 0q0 46.019765 46.019765 46.019765ZM512 896a38.791529 38.791529 0 0 1-38.776471-38.791529v-30.268236H271.510588a38.791529 38.791529 0 0 1-38.791529-38.77647v-21.714824a77.583059 77.583059 0 0 1 77.568-77.568h403.395765a77.583059 77.583059 0 0 1 77.583058 77.568V788.178824a38.791529 38.791529 0 0 1-38.791529 38.77647H550.791529v30.268235A38.791529 38.791529 0 0 1 512 896z"  horiz-adv-x="1024" />
      
      <glyph glyph-name="pinglun" unicode="&#59145;" d="M546.133333 793.6c226.2016 0 409.6-183.3984 409.6-409.6s-183.3984-409.6-409.6-409.6a407.790933 407.790933 0 0 0-210.363733 58.094933 2636.0832 2636.0832 0 0 1-19.2512 11.264l-100.215467-27.306666a30.72 30.72 0 0 0-37.717333 37.717333l27.306667 100.113067c-10.581333 17.92-17.5104 29.969067-20.957867 36.386133A407.893333 407.893333 0 0 0 136.533333 384C136.533333 610.2016 319.931733 793.6 546.133333 793.6z m-98.133333-527.7696a30.72 30.72 0 1 1-39.253333-47.240533A214.254933 214.254933 0 0 1 546.133333 168.96c50.858667 0 99.054933 17.749333 137.386667 49.595733a30.754133 30.754133 0 1 1-39.253333 47.240534A152.814933 152.814933 0 0 0 546.133333 230.4a152.849067 152.849067 0 0 0-98.133333 35.4304z"  horiz-adv-x="1058" />
      
    </font>
</defs>
</svg>
